<?xml version="1.0" standalone="no"?>
<!DOCTYPE svg PUBLIC "-//W3C//DTD SVG 1.1//EN" "http://www.w3.org/Graphics/SVG/1.1/DTD/svg11.dtd" >
<svg>
<metadata>
Created by FontForge 20090622 at Mon Oct  7 13:24:39 2019
 By deploy user
Copyright (c) 2012 by Jos Buivenga. All rights reserved.
</metadata>
<defs>
<font id="MuseoSansCyrl-500" horiz-adv-x="386" >
  <font-face 
    font-family="Museo Sans Cyrl 500"
    font-weight="400"
    font-stretch="normal"
    units-per-em="1000"
    panose-1="2 0 0 0 0 0 0 0 0 0"
    ascent="750"
    descent="-250"
    x-height="506"
    cap-height="706"
    bbox="-120 -215 1088 892"
    underline-thickness="50"
    underline-position="-50"
    unicode-range="U+0020-U+FB04"
  />
<missing-glyph horiz-adv-x="510" 
d="M5 0v700h500v-700h-500zM255 395l170 255h-340zM285 350l170 -255v510zM55 95l170 255l-170 255v-510zM85 50h340l-170 255z" />
    <glyph glyph-name="f_f" unicode="ff" horiz-adv-x="675" 
d="M98 0v428h-63v78h63v17q0 48 14 83.5t34.5 55t48 31t49.5 15t45 3.5q24 0 37 -3v-84q-8 2 -25 2q-106 0 -106 -104v-16h241v17q0 48 14 83.5t34.5 55t48 31t49.5 15t45 3.5q24 0 37 -3v-84q-8 2 -25 2q-106 0 -106 -104v-16h119v-78h-119v-428h-97v428h-241v-428h-97z
" />
    <glyph glyph-name="fi" unicode="fi" horiz-adv-x="581" 
d="M98 0v428h-63v78h63v17q0 48 14 83.5t34.5 55t48 31t49.5 15t45 3.5q17 0 37 -3v-84q-8 2 -25 2q-106 0 -106 -104v-16h312v-506h-96v428h-216v-428h-97zM409 608v98h99v-98h-99z" />
    <glyph glyph-name="fl" unicode="fl" horiz-adv-x="598" 
d="M405 139v567h96v-551q0 -41 14.5 -56.5t40.5 -15.5q11 0 17 1v-86q-21 -3 -32 -3q-136 0 -136 144zM99 0v422h-63v79h63v22q0 48 14 83.5t34.5 55t48 31t49.5 15t45 3.5q18 0 37 -3v-84q-8 2 -25 2q-106 0 -106 -104v-21h119v-79h-119v-422h-97z" />
    <glyph glyph-name="f_f_i" unicode="ffi" horiz-adv-x="919" 
d="M98 0v428h-63v78h63v17q0 48 14 83.5t34.5 55t48 31t49.5 15t45 3.5q17 0 37 -3v-84q-8 2 -25 2q-106 0 -106 -104v-16h241v17q0 48 14 83.5t34.5 55t48 31t49.5 15t45 3.5q17 0 37 -3v-84q-8 2 -25 2q-106 0 -106 -104v-16h312v-506h-96v428h-216v-428h-97v428h-241
v-428h-97zM747 608v98h100v-98h-100z" />
    <glyph glyph-name="f_f_l" unicode="ffl" horiz-adv-x="935" 
d="M98 0v428h-63v78h63v17q0 48 14 83.5t34.5 55t48 31t49.5 15t45 3.5q17 0 37 -3v-84q-8 2 -25 2q-106 0 -106 -104v-16h241v17q0 48 14 83.5t34.5 55t48 31t49.5 15t45 3.5q17 0 37 -3v-84q-8 2 -25 2q-106 0 -106 -104v-16h119v-78h-119v-428h-97v428h-241v-428h-97z
M742 139v567h97v-551q0 -41 14.5 -56.5t40.5 -15.5q11 0 17 1v-86q-21 -3 -32 -3q-137 0 -137 144z" />
    <glyph glyph-name="f_j" unicode="fj" horiz-adv-x="581" 
d="M98 0v428h-63v78h63v17q0 48 14 83.5t34.5 55t48 31t49.5 15t45 3.5q17 0 37 -3v-84q-8 2 -25 2q-106 0 -106 -104v-16h312v-523q0 -48 -14.5 -84t-35 -55.5t-49 -31.5t-50 -15t-44.5 -3q-12 0 -34 2v83q10 -2 22 -2q17 0 33 4t34.5 14.5t30 34.5t11.5 59v439h-216v-428
h-97zM409 608v98h99v-98h-99z" />
    <glyph glyph-name=".notdef" horiz-adv-x="510" 
d="M5 0v700h500v-700h-500zM255 395l170 255h-340zM285 350l170 -255v510zM55 95l170 255l-170 255v-510zM85 50h340l-170 255z" />
    <glyph glyph-name=".null" horiz-adv-x="0" 
 />
    <glyph glyph-name="nonmarkingreturn" horiz-adv-x="333" 
 />
    <glyph glyph-name="space" unicode=" " horiz-adv-x="250" 
 />
    <glyph glyph-name="exclam" unicode="!" horiz-adv-x="275" 
d="M93 194l-6 512h100l-7 -512h-87zM87 0v99h100v-99h-100z" />
    <glyph glyph-name="quotedbl" unicode="&#x22;" horiz-adv-x="365" 
d="M215 530v188h76v-188h-76zM74 530v188h77v-188h-77z" />
    <glyph glyph-name="numbersign" unicode="#" horiz-adv-x="721" 
d="M141 0l33 191h-131l13 73h131l30 169h-130l12 73h130l35 200h81l-35 -200h155l35 200h81l-35 -200h131l-13 -73h-130l-30 -169h129l-12 -73h-129l-34 -191h-81l33 191h-155l-33 -191h-81zM268 264h155l30 169h-156z" />
    <glyph glyph-name="dollar" unicode="$" horiz-adv-x="577" 
d="M60 81l55 75q33 -33 82.5 -54.5t97.5 -21.5q52 0 87 28t35 76q0 40 -35.5 69.5t-86.5 51t-102 46.5t-86.5 68t-35.5 102q0 73 51.5 127.5t134.5 66.5v94h70v-93q101 -6 172 -70l-45 -81q-30 27 -72 44.5t-83 17.5q-55 0 -91.5 -30.5t-36.5 -73.5q0 -33 25.5 -58.5t64 -41
t83.5 -36.5t83.5 -43.5t64 -63t25.5 -93.5q0 -77 -51 -132t-139 -65v-92h-70v92q-123 12 -197 91z" />
    <glyph glyph-name="percent" unicode="%" horiz-adv-x="763" 
d="M200 422q-63 0 -107 43t-44 105q0 61 44 104.5t107 43.5t108 -43.5t45 -104.5t-45 -104.5t-108 -43.5zM64 0l541 706h94l-540 -706h-95zM200 496q32 0 53.5 21.5t21.5 52.5t-22 53t-53 22t-52 -22t-21 -53t21 -52.5t52 -21.5zM412 135q0 62 44 105.5t107 43.5
t107.5 -43.5t44.5 -105.5q0 -61 -44.5 -104t-107.5 -43t-107 43t-44 104zM490 136q0 -31 21 -52.5t52 -21.5t52.5 21.5t21.5 52.5t-21.5 53t-52.5 22t-52 -22t-21 -53z" />
    <glyph glyph-name="ampersand" unicode="&#x26;" horiz-adv-x="674" 
d="M56 197q0 61 33.5 112t90.5 69v2q-43 19 -68.5 59t-25.5 97q0 86 60.5 134t157.5 48q40 0 86 -11l-25 -79q-23 6 -53 6q-54 0 -89.5 -29t-35.5 -79q0 -44 28.5 -77.5t100.5 -33.5h131v96h98v-96h94v-86h-94v-94q0 -117 -65 -182t-180 -65q-108 0 -176 59.5t-68 149.5z
M157 203q0 -53 39.5 -88.5t103.5 -35.5q70 0 108.5 40t38.5 121v89h-134q-75 0 -115.5 -33t-40.5 -93z" />
    <glyph glyph-name="quotesingle" unicode="'" horiz-adv-x="226" 
d="M74 530v188h77v-188h-77z" />
    <glyph glyph-name="parenleft" unicode="(" horiz-adv-x="293" 
d="M169 -95q-116 193 -116 435q0 210 116 395h85q-113 -189 -113 -396q0 -229 113 -434h-85z" />
    <glyph glyph-name="parenright" unicode=")" horiz-adv-x="293" 
d="M39 -95q113 205 113 434q0 207 -113 396h85q116 -185 116 -395q0 -242 -116 -435h-85z" />
    <glyph glyph-name="asterisk" unicode="*" horiz-adv-x="495" 
d="M170 329l-73 52l90 110v2l-137 37l27 85l133 -51l-8 142h91l-8 -142l134 50l27 -83l-137 -38v-2l89 -110l-72 -52l-78 118h-2z" />
    <glyph glyph-name="plus" unicode="+" horiz-adv-x="577" 
d="M24 246v78h224v246h82v-246h223v-78h-223v-246h-82v246h-224z" />
    <glyph glyph-name="comma" unicode="," horiz-adv-x="272" 
d="M35 -101l62 206h102l-87 -206h-77z" />
    <glyph glyph-name="hyphen" unicode="-" horiz-adv-x="432" 
d="M70 242v86h292v-86h-292z" />
    <glyph glyph-name="period" unicode="." horiz-adv-x="244" 
d="M70 0v105h104v-105h-104z" />
    <glyph glyph-name="slash" unicode="/" horiz-adv-x="416" 
d="M38 -42l254 786h86l-254 -786h-86z" />
    <glyph glyph-name="zero" unicode="0" horiz-adv-x="622" 
d="M311 -12q-68 0 -118 28t-78 79t-41 115t-13 144t13 143.5t41 114t78 78.5t118 28q250 0 250 -364q0 -366 -250 -366zM311 79q148 0 148 275q0 273 -148 273t-148 -273q0 -275 148 -275z" />
    <glyph glyph-name="one" unicode="1" horiz-adv-x="494" 
d="M57 0v86h156v456l1 43h-2q-8 -15 -34 -41l-66 -64l-60 62l169 164h88v-620h155v-86h-407z" />
    <glyph glyph-name="two" unicode="2" horiz-adv-x="573" 
d="M60 0q-5 32 -5 54q0 51 19 95t49.5 76t67.5 60.5t74.5 53.5t68 50t49.5 55.5t19 63.5q0 52 -36 84.5t-92 32.5q-43 0 -81.5 -25t-61.5 -65l-73 49q32 59 91 96.5t133 37.5q98 0 160 -56t62 -147q0 -54 -25 -101t-62.5 -77.5t-81.5 -62.5t-82 -57t-63.5 -59.5t-26.5 -71.5
h352v-86h-455z" />
    <glyph glyph-name="three" unicode="3" horiz-adv-x="567" 
d="M44 84l54 75q31 -33 77 -55t94 -22q60 0 102 36.5t42 92.5q0 62 -47.5 96t-117.5 34h-48l-23 53l154 181q10 12 21 23.5l17 17.5l6 5v2q-21 -3 -60 -3h-239v86h422v-63l-192 -222q51 -5 95.5 -26t78 -68.5t33.5 -112.5q0 -93 -67 -159.5t-173 -66.5q-63 0 -124 25
t-105 71z" />
    <glyph glyph-name="four" unicode="4" horiz-adv-x="610" 
d="M34 189v62l327 455h112v-434h96v-83h-96v-189h-97v189h-342zM143 272h233v258l4 71h-2q-16 -34 -35 -59l-200 -268v-2z" />
    <glyph glyph-name="five" unicode="5" horiz-adv-x="563" 
d="M49 86l56 72q62 -76 155 -76q64 0 109 40t45 103t-45.5 104t-114.5 41q-66 0 -119 -35l-58 21l35 350h357v-86h-271l-16 -149l-6 -36h2q40 21 92 21q110 0 178 -66.5t68 -164.5q0 -101 -71.5 -169t-178.5 -68q-63 0 -120.5 25.5t-96.5 72.5z" />
    <glyph glyph-name="six" unicode="6" horiz-adv-x="597" 
d="M57 320q0 56 12 111.5t37.5 107.5t61.5 91.5t89.5 63.5t116.5 24q77 0 138 -29l-32 -85q-44 23 -102 23q-90 0 -144 -69.5t-67 -167.5h2q22 30 65.5 48t90.5 18q99 0 161 -66t62 -167q0 -102 -64 -168.5t-163 -66.5q-114 0 -189 92t-75 240zM324 79q56 0 91 41t35 103
q0 67 -39 108.5t-106 41.5q-58 0 -101 -29t-43 -75q0 -65 46.5 -127.5t116.5 -62.5z" />
    <glyph glyph-name="seven" unicode="7" horiz-adv-x="537" 
d="M92 0l275 555q9 18 19 34.5t16 23.5l5 7v2q-14 -2 -50 -2h-316v86h472v-68l-318 -638h-103z" />
    <glyph glyph-name="eight" unicode="8" horiz-adv-x="603" 
d="M55 201q0 37 13 71.5t34 58.5t36 37.5t30 23.5q-79 55 -79 139q0 78 57 132.5t163 54.5q99 0 160.5 -51.5t61.5 -136.5q0 -58 -28.5 -107.5t-56.5 -77.5q96 -58 96 -150q0 -85 -67 -146t-175 -61q-105 0 -175 60.5t-70 152.5zM370 383q64 68 64 139q0 50 -35 78.5
t-92 28.5q-56 0 -88 -28t-32 -70q0 -15 4.5 -28t11 -23t19.5 -20.5t23 -17.5t28.5 -16l30 -14.5t33.5 -14.5t33 -14zM156 209q0 -57 43 -94.5t100 -37.5q58 0 100 33.5t42 86.5q0 23 -10.5 41.5t-34.5 34.5t-43 26t-56.5 26t-54.5 24q-86 -60 -86 -140z" />
    <glyph glyph-name="nine" unicode="9" horiz-adv-x="597" 
d="M84 17l32 86q48 -24 101 -24q91 0 145 69.5t67 167.5h-2q-21 -30 -65 -48t-91 -18q-99 0 -161 66t-62 166q0 104 64 170t163 66q115 0 189.5 -92t74.5 -241q0 -70 -19.5 -138.5t-57 -127.5t-100 -95t-141.5 -36q-78 0 -137 29zM291 333q59 0 102 30.5t43 68.5
q0 72 -47.5 133.5t-112.5 61.5q-59 0 -94 -40.5t-35 -104.5q0 -66 39 -107.5t105 -41.5z" />
    <glyph glyph-name="colon" unicode=":" horiz-adv-x="242" 
d="M70 403v103h102v-103h-102zM70 0v103h102v-103h-102z" />
    <glyph glyph-name="semicolon" unicode=";" horiz-adv-x="288" 
d="M108 403v103h100v-103h-100zM53 -101l53 206h100l-76 -206h-77z" />
    <glyph glyph-name="less" unicode="&#x3c;" horiz-adv-x="577" 
d="M42 252v66l466 208v-89l-357 -151v-2l357 -151v-89z" />
    <glyph glyph-name="equal" unicode="=" horiz-adv-x="577" 
d="M50 340v78h477v-78h-477zM50 151v78h477v-78h-477z" />
    <glyph glyph-name="greater" unicode="&#x3e;" horiz-adv-x="577" 
d="M68 44v89l357 151v2l-357 151v89l466 -208v-66z" />
    <glyph glyph-name="question" unicode="?" horiz-adv-x="466" 
d="M151 194v47q0 42 17.5 76t42 57.5t49.5 45t42.5 49.5t17.5 61q0 42 -32.5 70.5t-81.5 28.5q-61 0 -113 -42l-54 69q72 64 174 64q87 0 148 -51t61 -132q0 -46 -18 -82.5t-44 -61t-52.5 -47t-44.5 -50.5t-18 -61v-41h-94zM148 0v99h100v-99h-100z" />
    <glyph glyph-name="at" unicode="@" horiz-adv-x="796" 
d="M56 241q0 155 106 262.5t259 107.5q135 0 197.5 -57.5t62.5 -145.5v-283h72v-73h-273q-91 0 -149 55.5t-58 132.5q0 78 57.5 133t149.5 55h108q-1 44 -44 73.5t-118 29.5q-115 0 -194 -86t-79 -204q0 -121 79.5 -204t204.5 -83v-79q-165 0 -273 105.5t-108 260.5z
M371 242q0 -49 33 -83t83 -34h101v236h-99q-51 0 -84.5 -34.5t-33.5 -84.5z" />
    <glyph glyph-name="A" unicode="A" horiz-adv-x="641" 
d="M15 0l253 706h105l253 -706h-102l-71 203h-266l-71 -203h-101zM213 285h214l-78 223l-28 101h-2q-15 -64 -27 -101z" />
    <glyph glyph-name="B" unicode="B" horiz-adv-x="624" 
d="M93 0v706h247q92 0 148.5 -48t56.5 -132q0 -51 -23.5 -91t-64.5 -61v-2q55 -16 86 -63t31 -108q0 -96 -65 -148.5t-163 -52.5h-253zM192 409h148q47 0 75.5 30t28.5 77t-28 75.5t-77 28.5h-147v-211zM192 86h159q56 0 88.5 33t32.5 88q0 54 -33 87t-88 33h-159v-241z" />
    <glyph glyph-name="C" unicode="C" horiz-adv-x="717" 
d="M50 357q0 155 101.5 258t257.5 103q161 0 258 -93l-50 -74q-39 35 -94.5 56t-109.5 21q-120 0 -190.5 -77t-70.5 -193q0 -117 72 -198t191 -81q59 0 116.5 24.5t100.5 67.5l53 -71q-112 -112 -273 -112t-261.5 105.5t-100.5 263.5z" />
    <glyph glyph-name="D" unicode="D" horiz-adv-x="737" 
d="M93 0v706h235q163 0 260 -93.5t97 -258.5q0 -166 -97 -260t-260 -94h-235zM192 86h129q121 0 191.5 69.5t70.5 198.5q0 127 -71 196.5t-191 69.5h-129v-534z" />
    <glyph glyph-name="E" unicode="E" horiz-adv-x="564" 
d="M93 0v706h411v-86h-312v-221h253v-86h-253v-227h329v-86h-428z" />
    <glyph glyph-name="F" unicode="F" horiz-adv-x="514" 
d="M93 0v706h389v-86h-290v-233h247v-86h-247v-301h-99z" />
    <glyph glyph-name="G" unicode="G" horiz-adv-x="762" 
d="M50 354q0 154 103 259t257 105q155 0 257 -86l-50 -73q-36 30 -91.5 49.5t-108.5 19.5q-120 0 -192.5 -78t-72.5 -194q0 -121 74 -199t185 -78q115 0 200 88v102h-114v86h205v-355h-87v44l1 30h-2q-37 -39 -95 -62.5t-122 -23.5q-145 0 -246 103.5t-101 262.5z" />
    <glyph glyph-name="H" unicode="H" horiz-adv-x="750" 
d="M93 0v706h99v-310h367v310h98v-706h-98v310h-367v-310h-99z" />
    <glyph glyph-name="I" unicode="I" horiz-adv-x="286" 
d="M93 0v706h99v-706h-99z" />
    <glyph glyph-name="J" unicode="J" horiz-adv-x="533" 
d="M28 203v35h98v-30q0 -56 27.5 -92.5t83.5 -36.5q48 0 79.5 30.5t31.5 94.5v416h-178v86h276v-503q0 -107 -61.5 -161t-147.5 -54t-147.5 54.5t-61.5 160.5z" />
    <glyph glyph-name="K" unicode="K" horiz-adv-x="614" 
d="M93 0v706h99v-297h105l179 297h109l-206 -335v-2l219 -369h-113l-188 323h-105v-323h-99z" />
    <glyph glyph-name="L" unicode="L" horiz-adv-x="526" 
d="M93 0v706h99v-620h317v-86h-416z" />
    <glyph glyph-name="M" unicode="M" horiz-adv-x="851" 
d="M66 0l58 706h103l163 -382l34 -95h2q19 56 35 95l163 382h103l57 -706h-98l-34 445l-2 104h-2q-22 -65 -38 -104l-141 -318h-88l-140 318l-38 106h-2q2 -63 -2 -106l-34 -445h-99z" />
    <glyph glyph-name="N" unicode="N" horiz-adv-x="752" 
d="M93 0v706h98l315 -458l58 -103h2q-6 63 -6 103v458h98v-706h-97l-315 458l-58 103h-2q6 -63 6 -103v-458h-99z" />
    <glyph glyph-name="O" unicode="O" horiz-adv-x="823" 
d="M49 358q0 153 103 256.5t260 103.5q156 0 259 -103.5t103 -256.5q0 -157 -103 -263.5t-259 -106.5t-259.5 106.5t-103.5 263.5zM151 358q0 -119 74 -199t187 -80q112 0 186 80t74 199q0 115 -74 192.5t-186 77.5q-113 0 -187 -77.5t-74 -192.5z" />
    <glyph glyph-name="P" unicode="P" horiz-adv-x="606" 
d="M93 0v706h259q98 0 159.5 -60.5t61.5 -160.5t-62 -162t-159 -62h-160v-261h-99zM192 347h144q63 0 100 37t37 101q0 63 -36.5 99t-99.5 36h-145v-273z" />
    <glyph glyph-name="Q" unicode="Q" horiz-adv-x="824" 
d="M50 357q0 154 103 257.5t258 103.5q158 0 260.5 -103.5t102.5 -257.5q0 -133 -82 -233l83 -80l-58 -62l-82 83q-94 -77 -224 -77q-156 0 -258.5 107t-102.5 262zM152 357q0 -117 74.5 -197.5t184.5 -80.5q91 0 154 52l-83 81l57 62l81 -83q52 72 52 166
q0 116 -74.5 193.5t-186.5 77.5q-110 0 -184.5 -77.5t-74.5 -193.5z" />
    <glyph glyph-name="R" unicode="R" horiz-adv-x="628" 
d="M93 0v706h224q89 0 131 -19q52 -23 82 -71t30 -114q0 -68 -34.5 -121.5t-91.5 -72.5v-2q8 -10 20 -32l150 -274h-112l-149 281h-151v-281h-99zM192 367h142q58 0 92 35.5t34 94.5q0 83 -66 111q-27 12 -85 12h-117v-253z" />
    <glyph glyph-name="S" unicode="S" horiz-adv-x="545" 
d="M41 81l56 75q34 -33 82 -54.5t96 -21.5q56 0 90 27.5t34 73.5q0 43 -35 73.5t-85.5 51.5t-100.5 45t-85 67t-35 104q0 88 65.5 142t165.5 54q121 0 197 -72l-45 -81q-30 28 -72.5 45t-83.5 17q-55 0 -91 -27.5t-36 -72.5q0 -35 25 -62t63 -42.5t82 -36t82 -42.5t63 -62
t25 -93q0 -86 -60 -143.5t-165 -57.5q-137 0 -232 93z" />
    <glyph glyph-name="T" unicode="T" horiz-adv-x="615" 
d="M258 0v620h-243v86h584v-86h-243v-620h-98z" />
    <glyph glyph-name="U" unicode="U" horiz-adv-x="726" 
d="M85 250v456h99v-455q0 -81 48.5 -126.5t130.5 -45.5t130 45.5t48 127.5v454h99v-456q0 -118 -76 -190t-200 -72q-125 0 -202 72t-77 190z" />
    <glyph glyph-name="V" unicode="V" horiz-adv-x="644" 
d="M270 0l-258 706h106l176 -499l27 -97h2q14 59 27 97l177 499h105l-258 -706h-104z" />
    <glyph glyph-name="W" unicode="W" horiz-adv-x="941" 
d="M209 0l-180 706h104l123 -518l14 -75h2q6 36 16 75l139 518h87l138 -518l16 -75h2q4 37 13 75l131 518h102l-186 -706h-113l-124 458l-21 99h-4q-9 -53 -22 -99l-123 -458h-114z" />
    <glyph glyph-name="X" unicode="X" horiz-adv-x="598" 
d="M16 0l222 364l-208 342h113l111 -191l45 -84h2q20 45 43 84l112 191h114l-210 -342l223 -364h-111l-129 217l-44 81h-2q-21 -42 -43 -81l-128 -217h-110z" />
    <glyph glyph-name="Y" unicode="Y" horiz-adv-x="592" 
d="M247 0v299l-237 407h112l130 -232l43 -89h2q21 48 43 89l130 232h112l-237 -407v-299h-98z" />
    <glyph glyph-name="Z" unicode="Z" horiz-adv-x="594" 
d="M36 0v66l339 490q12 18 25 34t20 23l6 7v2q-19 -2 -52 -2h-321v86h496v-65l-340 -491q-12 -17 -24.5 -33t-18.5 -23l-7 -8v-2q18 2 52 2h342v-86h-517z" />
    <glyph glyph-name="bracketleft" unicode="[" horiz-adv-x="301" 
d="M86 -95v830h166v-73h-81v-683h81v-74h-166z" />
    <glyph glyph-name="backslash" unicode="\" horiz-adv-x="416" 
d="M292 -42l-254 786h86l254 -786h-86z" />
    <glyph glyph-name="bracketright" unicode="]" horiz-adv-x="301" 
d="M49 -21h81v683h-81v73h166v-830h-166v74z" />
    <glyph glyph-name="asciicircum" unicode="^" horiz-adv-x="612" 
d="M69 247l200 459h63l200 -459h-88l-144 352l-143 -352h-88z" />
    <glyph glyph-name="underscore" unicode="_" horiz-adv-x="597" 
d="M29 0h539v-78h-539v78z" />
    <glyph glyph-name="grave" unicode="`" horiz-adv-x="499" 
d="M256 755l-95 127h104l73 -127h-82z" />
    <glyph glyph-name="a" unicode="a" horiz-adv-x="527" 
d="M33 138q0 56 31 94t82.5 54.5t95.5 22.5t93 6h26v10q0 111 -111 111q-73 0 -142 -49l-39 71q31 26 84 43t105 17q96 0 148 -51t52 -147v-320h-91v51l3 40h-2q-23 -45 -67.5 -74t-98.5 -29q-69 0 -119 41t-50 109zM130 146q0 -33 25 -57t70 -24q60 0 98 50t38 111v19h-25
q-206 0 -206 -99z" />
    <glyph glyph-name="b" unicode="b" horiz-adv-x="601" 
d="M75 0v706h97v-234l-4 -43h2q23 41 67.5 65t96.5 24q102 0 162 -73t60 -192q0 -120 -64 -192.5t-166 -72.5q-50 0 -93 24.5t-68 66.5h-2q3 -15 3 -38v-41h-91zM169 251q0 -73 37.5 -126t105.5 -53q62 0 104 48.5t42 131.5q0 82 -39.5 131.5t-103.5 49.5q-62 0 -104 -46
t-42 -136z" />
    <glyph glyph-name="c" unicode="c" horiz-adv-x="545" 
d="M42 253q0 113 76.5 189t194.5 76q120 0 190 -74l-46 -68q-58 58 -140 58q-76 0 -126 -51.5t-50 -128.5q0 -78 50.5 -130t128.5 -52q42 0 84.5 18.5t71.5 49.5l39 -71q-35 -37 -89 -59t-113 -22q-119 0 -195 75t-76 190z" />
    <glyph glyph-name="d" unicode="d" horiz-adv-x="601" 
d="M44 253q0 120 64 192.5t165 72.5q49 0 91 -21.5t66 -61.5h2q-2 15 -2 34v237h96v-706h-92v51l3 34h-2q-23 -43 -66.5 -70t-101.5 -27q-101 0 -162 73t-61 192zM143 253q0 -82 39.5 -131.5t103.5 -49.5q62 0 104 46t42 136q0 74 -37.5 126.5t-106.5 52.5
q-62 0 -103.5 -48.5t-41.5 -131.5z" />
    <glyph glyph-name="e" unicode="e" horiz-adv-x="557" 
d="M42 253q0 119 72 192t182 73q103 0 161 -67.5t58 -169.5q0 -13 -4 -41h-368q4 -79 53.5 -123.5t120.5 -44.5q83 0 149 59l41 -71q-36 -33 -89.5 -52.5t-106.5 -19.5q-118 0 -193.5 75.5t-75.5 189.5zM146 310h271q-2 63 -36.5 98t-86.5 35q-57 0 -97.5 -35.5t-50.5 -97.5
z" />
    <glyph glyph-name="f" unicode="f" horiz-adv-x="339" 
d="M99 0v422h-63v79h63v22q0 48 14 83.5t34.5 55t48 31t49.5 15t45 3.5q18 0 37 -3v-84q-8 2 -25 2q-106 0 -106 -104v-21h119v-79h-119v-422h-97z" />
    <glyph glyph-name="g" unicode="g" horiz-adv-x="594" 
d="M123 -92q68 -34 139 -34t115.5 34.5t44.5 106.5v41l3 32h-2q-49 -82 -152 -82t-164.5 73t-61.5 185t59 183t162 71q51 0 94 -19t66 -58h3q-3 6 -3 15v50h93v-485q0 -60 -21.5 -106t-58.5 -72.5t-81 -39.5t-94 -13q-89 0 -173 42zM143 267q0 -80 39.5 -128.5t107.5 -48.5
q59 0 96.5 41t37.5 133q0 170 -143 170q-65 0 -101.5 -44.5t-36.5 -122.5z" />
    <glyph glyph-name="h" unicode="h" horiz-adv-x="603" 
d="M75 0v706h97v-262l-4 -42h2q21 44 71 80t119 36q173 0 173 -194v-324h-97v302q0 61 -19.5 94t-75.5 33q-73 0 -121 -53.5t-48 -135.5v-240h-97z" />
    <glyph glyph-name="i" unicode="i" horiz-adv-x="246" 
d="M73 608v98h100v-98h-100zM75 0v506h97v-506h-97z" />
    <glyph glyph-name="j" unicode="j" horiz-adv-x="246" 
d="M73 608v98h100v-98h-100zM75 -11v517h97v-523q0 -48 -14.5 -84t-35 -55.5t-49 -31.5t-50.5 -15t-45 -3q-10 0 -34 2v83q10 -2 22 -2q18 0 34 4t34.5 14.5t29.5 34.5t11 59z" />
    <glyph glyph-name="k" unicode="k" horiz-adv-x="522" 
d="M75 0v706h97v-386h72l137 186h110l-168 -223v-2l187 -281h-113l-151 237h-74v-237h-97z" />
    <glyph glyph-name="l" unicode="l" horiz-adv-x="267" 
d="M75 139v567h96v-551q0 -41 14.5 -56.5t40.5 -15.5q11 0 17 1v-86q-21 -3 -32 -3q-136 0 -136 144z" />
    <glyph glyph-name="m" unicode="m" horiz-adv-x="914" 
d="M75 0v506h94v-69l-3 -38h2q19 47 69 83t107 36q125 0 151 -115h2q22 47 71.5 81t108.5 34q86 0 126.5 -48t40.5 -146v-324h-97v303q0 61 -18.5 94t-70.5 33q-67 0 -108.5 -58.5t-41.5 -135.5v-236h-97v303q0 60 -17.5 93.5t-69.5 33.5q-68 0 -110 -59t-42 -135v-236h-97z
" />
    <glyph glyph-name="n" unicode="n" horiz-adv-x="603" 
d="M75 0v506h94v-69l-3 -38h2q19 43 68.5 81t123.5 38q173 0 173 -194v-324h-97v302q0 61 -19.5 94t-75.5 33q-73 0 -121 -53.5t-48 -132.5v-243h-97z" />
    <glyph glyph-name="o" unicode="o" horiz-adv-x="629" 
d="M42 254q0 113 79 188.5t193 75.5q115 0 194 -75t79 -189t-79 -190t-193 -76t-193.5 76t-79.5 190zM141 254q0 -79 50.5 -130.5t123.5 -51.5q72 0 123 52t51 130t-51 129t-123 51q-73 0 -123.5 -51t-50.5 -129z" />
    <glyph glyph-name="p" unicode="p" horiz-adv-x="601" 
d="M75 -200v706h90v-45l-3 -38h2q24 45 69 70t101 25q102 0 162 -73t60 -192q0 -120 -64 -192.5t-165 -72.5t-157 86h-2q4 -18 4 -44v-230h-97zM169 251q0 -72 38.5 -125.5t104.5 -53.5q62 0 104 48.5t42 131.5q0 82 -39.5 131.5t-103.5 49.5q-62 0 -104 -46t-42 -136z" />
    <glyph glyph-name="q" unicode="q" horiz-adv-x="601" 
d="M44 253q0 120 64 192.5t165 72.5q50 0 93.5 -23.5t67.5 -64.5h2q-2 15 -2 35v41h92v-706h-96v234l2 44h-2q-22 -39 -64.5 -64.5t-98.5 -25.5q-101 0 -162 73t-61 192zM143 253q0 -82 39.5 -131.5t103.5 -49.5q62 0 104 46t42 136q0 74 -37.5 126.5t-106.5 52.5
q-62 0 -103.5 -48.5t-41.5 -131.5z" />
    <glyph glyph-name="r" unicode="r" horiz-adv-x="376" 
d="M75 0v506h94v-91l-3 -37h2q19 58 62 96t99 38q10 0 26 -2v-96q-8 2 -28 2q-76 0 -115.5 -61.5t-39.5 -144.5v-210h-97z" />
    <glyph glyph-name="s" unicode="s" horiz-adv-x="447" 
d="M32 62l46 66q61 -59 149 -59q39 0 62.5 17.5t23.5 48.5q0 26 -27 45t-65 33t-76 31t-65 49.5t-27 78.5q0 69 52 107.5t130 38.5q102 0 164 -56l-39 -70q-22 21 -57.5 33t-70.5 12q-39 0 -62.5 -16t-23.5 -47q0 -27 27 -46t65 -32.5t76.5 -30.5t65.5 -49.5t27 -78.5
q0 -65 -51 -107t-131 -42q-120 0 -193 74z" />
    <glyph glyph-name="t" unicode="t" horiz-adv-x="349" 
d="M96 185v237h-66v79h68v144h95v-144h122v-79h-122v-226q0 -29 8 -50.5t19.5 -33.5t27 -19t28 -9t25.5 -2t23 2v-86q-24 -3 -34 -3q-23 0 -45.5 3.5t-50.5 15t-48.5 31t-35 56t-14.5 84.5z" />
    <glyph glyph-name="u" unicode="u" horiz-adv-x="597" 
d="M69 182v324h97v-302q0 -60 20 -93t75 -33q75 0 120 56t45 135v237h96v-506h-94v70l4 37h-2q-20 -45 -70 -82t-118 -37q-173 0 -173 194z" />
    <glyph glyph-name="v" unicode="v" horiz-adv-x="528" 
d="M209 0l-190 506h103l123 -342l18 -69h2q8 41 17 69l123 342h102l-187 -506h-111z" />
    <glyph glyph-name="w" unicode="w" horiz-adv-x="828" 
d="M187 0l-163 506h103l105 -355l13 -54h2q6 28 14 54l109 354h90l109 -354l13 -54h2q5 28 13 54l106 355h101l-162 -506h-108l-104 325l-15 55h-2q-6 -29 -14 -55l-104 -325h-108z" />
    <glyph glyph-name="x" unicode="x" horiz-adv-x="499" 
d="M17 0l173 260l-163 246h111l94 -154l16 -30h2q10 17 17 30l94 154h111l-163 -246l173 -260h-110l-106 169l-16 27h-2q-7 -15 -15 -27l-106 -169h-110z" />
    <glyph glyph-name="y" unicode="y" horiz-adv-x="535" 
d="M50 -105q28 -22 58 -22q61 0 92 75l25 58l-212 500h109l127 -331l19 -61h2q8 34 17 60l123 332h105l-238 -597q-22 -58 -65.5 -88.5t-98.5 -30.5q-25 0 -49 8t-36 16l-12 7z" />
    <glyph glyph-name="z" unicode="z" horiz-adv-x="511" 
d="M36 0v56l256 320l41 47v2q-16 -2 -49 -2h-237v83h417v-56l-255 -320q-9 -12 -20 -23.5l-17 -17.5l-6 -6v-2q17 3 50 3h257v-84h-437z" />
    <glyph glyph-name="braceleft" unicode="{" horiz-adv-x="355" 
d="M126 77v96q0 44 -21.5 73t-63.5 36v86q40 8 62.5 36.5t22.5 74.5v84q0 45 12.5 78.5t30 51t42 28.5t42 13.5t35.5 2.5l23 -1v-74h-13q-13 0 -25 -3.5t-27.5 -13t-25 -32t-9.5 -56.5v-103q0 -44 -22 -78t-59 -49v-2q81 -32 81 -127v-115q0 -34 9.5 -57t25 -32.5
t27.5 -12.5t25 -3h13v-74q-9 -2 -23 -2q-18 0 -35.5 2.5t-42 13.5t-42 28.5t-30 51.5t-12.5 79z" />
    <glyph glyph-name="bar" unicode="|" horiz-adv-x="254" 
d="M84 -159v951h85v-951h-85z" />
    <glyph glyph-name="braceright" unicode="}" horiz-adv-x="355" 
d="M44 -22h14q13 0 24.5 3t27 12.5t25 32.5t9.5 57v115q0 45 21 79t60 48v2q-34 13 -57.5 47t-23.5 80v103q0 34 -9.5 56.5t-25 32t-27 13t-24.5 3.5h-14v74q9 1 23 1q18 0 35.5 -2.5t42 -13.5t42 -28.5t30 -51t12.5 -78.5v-84q0 -44 22 -74t63 -37v-86q-40 -5 -62.5 -35.5
t-22.5 -73.5v-96q0 -45 -12.5 -79t-30 -51.5t-42 -28.5t-42 -13.5t-35.5 -2.5l-23 2v74z" />
    <glyph glyph-name="asciitilde" unicode="~" horiz-adv-x="611" 
d="M68 204q0 85 36.5 127t103.5 42q35 0 63.5 -15.5t43.5 -33.5t37 -33.5t47 -15.5q36 0 51.5 28t15.5 66h79q0 -169 -139 -169q-29 0 -52.5 10t-39 24t-30 28.5t-32.5 24.5t-39 10q-35 0 -50 -28t-15 -65h-80z" />
    <glyph glyph-name="uni00A0" unicode="&#xa0;" horiz-adv-x="250" 
 />
    <glyph glyph-name="exclamdown" unicode="&#xa1;" horiz-adv-x="254" 
d="M170 311l6 -512h-100l7 512h87zM176 505v-99h-100v99h100z" />
    <glyph glyph-name="cent" unicode="&#xa2;" horiz-adv-x="577" 
d="M264 -12v85q-97 13 -154 91.5t-57 188.5q0 111 57 189.5t154 91.5v84h71v-84q65 -10 113.5 -50.5t74.5 -104.5l-88 -34q-44 99 -133 99q-71 0 -110.5 -53.5t-39.5 -137.5q0 -86 39 -138t111 -52q89 0 133 98l88 -34q-26 -61 -74.5 -104t-113.5 -50v-85h-71z" />
    <glyph glyph-name="sterling" unicode="&#xa3;" horiz-adv-x="577" 
d="M48 0v86h61v233h-44v70h44v136q0 83 61.5 138t155.5 55q95 0 167 -64l-58 -69q-46 43 -108 43q-54 0 -86 -30.5t-32 -76.5v-132h184v-70h-184v-233h325v-86h-486z" />
    <glyph glyph-name="currency" unicode="&#xa4;" horiz-adv-x="610" 
d="M124 0v170h-70v70h70v70h-70v80h70v316h233q103 0 161.5 -54t58.5 -147q0 -91 -62.5 -143.5t-161.5 -52.5h-130v-69h250v-70h-250v-170h-99zM223 390h117q64 0 99.5 32.5t35.5 86.5t-35 85.5t-98 31.5h-119v-236z" />
    <glyph glyph-name="yen" unicode="&#xa5;" horiz-adv-x="577" 
d="M75 199v64h163v36l-26 48h-137v63h103l-165 296h113l118 -220l43 -101h2q21 54 43 101l119 220h113l-165 -296h101v-63h-135l-27 -48v-36h162v-64h-162v-199h-100v199h-163z" />
    <glyph glyph-name="section" unicode="&#xa7;" horiz-adv-x="447" 
d="M143 111l-71 390q-5 19 -5 46q0 75 50.5 123t137.5 48q84 0 141 -51l-46 -64q-42 34 -95 34q-47 0 -76.5 -26t-29.5 -75q0 -21 5 -40l68 -385h-79zM51 -11l44 67q43 -37 97 -37q46 0 76 27.5t30 77.5q0 20 -6 45l-66 376h79l70 -390q5 -27 5 -45q0 -76 -51 -124t-137 -48
q-82 0 -141 51z" />
    <glyph glyph-name="dieresis" unicode="&#xa8;" horiz-adv-x="499" 
d="M294 781v101h79v-101h-79zM126 781v101h80v-101h-80z" />
    <glyph glyph-name="copyright" unicode="&#xa9;" horiz-adv-x="823" 
d="M55 353q0 152 104 258.5t251 106.5q150 0 254.5 -106.5t104.5 -258.5t-104.5 -258.5t-254.5 -106.5q-147 0 -251 106.5t-104 258.5zM128 353q0 -125 81.5 -211.5t200.5 -86.5q121 0 203.5 86t82.5 212t-82.5 212t-203.5 86q-119 0 -200.5 -86.5t-81.5 -211.5zM221 352
q0 82 54.5 141t142.5 59q51 0 95 -27t68 -72l-62 -33q-13 26 -40.5 44.5t-58.5 18.5q-56 0 -90 -38t-34 -93q0 -56 33 -93.5t91 -37.5q31 0 57 17.5t42 45.5l62 -33q-21 -41 -65.5 -70t-97.5 -29q-89 0 -143 58.5t-54 141.5z" />
    <glyph glyph-name="ordfeminine" unicode="&#xaa;" horiz-adv-x="426" 
d="M183 383q-44 0 -76.5 25.5t-32.5 70.5q0 110 189 110h10v6q0 63 -64 63q-41 0 -83 -28l-29 49q49 37 121 37q62 0 94.5 -32.5t32.5 -93.5v-201h-68v46h-2q-11 -22 -36 -37t-56 -15zM198 441q32 0 53.5 27.5t21.5 61.5v8h-12q-114 0 -114 -54q0 -19 13.5 -31t37.5 -12z
M74 265v57h274v-57h-274z" />
    <glyph glyph-name="guillemotleft" unicode="&#xab;" horiz-adv-x="561" 
d="M247 282l164 206h97l-164 -206l164 -205h-97zM209 77l-164 205l164 206h97l-164 -206l164 -205h-97z" />
    <glyph glyph-name="logicalnot" unicode="&#xac;" horiz-adv-x="626" 
d="M72 340v78h477v-268h-81v190h-396z" />
    <glyph glyph-name="uni00AD" unicode="&#xad;" horiz-adv-x="432" 
d="M70 242v86h292v-86h-292z" />
    <glyph glyph-name="registered" unicode="&#xae;" horiz-adv-x="823" 
d="M55 353q0 152 104 258.5t251 106.5q150 0 254.5 -106.5t104.5 -258.5t-104.5 -258.5t-254.5 -106.5q-147 0 -251 106.5t-104 258.5zM128 353q0 -125 81.5 -211.5t200.5 -86.5q121 0 203.5 86t82.5 212t-82.5 212t-203.5 86q-119 0 -200.5 -86.5t-81.5 -211.5zM288 166
v378h146q53 0 85.5 -32t32.5 -84q0 -40 -21 -66.5t-48 -33.5v-2q4 -4 13 -21l73 -139h-79l-69 146h-62v-146h-71zM359 364h60q29 0 45 17t16 47q0 29 -16 45t-44 16h-61v-125z" />
    <glyph glyph-name="macron" unicode="&#xaf;" horiz-adv-x="499" 
d="M123 784v71h254v-71h-254z" />
    <glyph glyph-name="degree" unicode="&#xb0;" horiz-adv-x="409" 
d="M204 422q-63 0 -107 43t-44 105q0 61 44 104.5t107 43.5t108 -43.5t45 -104.5t-45 -104.5t-108 -43.5zM204 495q32 0 53.5 21.5t21.5 53.5q0 31 -22 53t-53 22t-52 -22t-21 -53q0 -32 21 -53.5t52 -21.5z" />
    <glyph glyph-name="plusminus" unicode="&#xb1;" horiz-adv-x="577" 
d="M24 246v78h224v246h82v-246h223v-78h-223v-246h-82v246h-224zM40 -95h497v-77h-497v77z" />
    <glyph glyph-name="twosuperior" unicode="&#xb2;" 
d="M47 423q-3 18 -3 36q0 47 22 83.5t53 59t62 42t53 42.5t22 50q0 28 -20.5 46.5t-51.5 18.5q-45 0 -85 -48l-49 45q21 31 58.5 51.5t78.5 20.5q62 0 103 -36.5t41 -94.5q0 -40 -20.5 -72t-50 -52.5t-59.5 -38.5t-52 -39.5t-24 -47.5h213v-66h-291z" />
    <glyph glyph-name="threesuperior" unicode="&#xb3;" 
d="M182 413q-42 0 -82 17t-65 49l42 53q15 -21 43 -35.5t59 -14.5q34 0 58.5 22t24.5 54q0 33 -26 52t-62 19h-34l-17 38l89 103l25 24v2q-19 -3 -37 -3h-141v67h271v-48l-109 -126q50 -7 83.5 -39.5t33.5 -88.5q0 -59 -44 -102t-112 -43z" />
    <glyph glyph-name="acute" unicode="&#xb4;" horiz-adv-x="499" 
d="M161 755l72 127h105l-96 -127h-81z" />
    <glyph glyph-name="mu" unicode="&#xb5;" horiz-adv-x="601" 
d="M162 20q8 -50 8 -80v-140h-86v706h97v-302q0 -61 19 -93.5t74 -32.5q76 0 120.5 56t44.5 135v237h97v-506h-93v69l2 36h-3q-2 -5 -6 -13t-19.5 -28t-34.5 -35.5t-53.5 -28t-73.5 -12.5q-63 0 -91 32h-2z" />
    <glyph glyph-name="mu" unicode="&#x3bc;" horiz-adv-x="601" 
d="M162 20q8 -50 8 -80v-140h-86v706h97v-302q0 -61 19 -93.5t74 -32.5q76 0 120.5 56t44.5 135v237h97v-506h-93v69l2 36h-3q-2 -5 -6 -13t-19.5 -28t-34.5 -35.5t-53.5 -28t-73.5 -12.5q-63 0 -91 32h-2z" />
    <glyph glyph-name="paragraph" unicode="&#xb6;" horiz-adv-x="597" 
d="M275 -50v291q-97 0 -167 67.5t-70 165.5q0 97 69.5 164.5t167.5 67.5h271v-86h-197v-670h-74zM411 -50v613h75v-613h-75z" />
    <glyph glyph-name="periodcentered" unicode="&#xb7;" horiz-adv-x="242" 
d="M70 238v105h101v-105h-101z" />
    <glyph glyph-name="cedilla" unicode="&#xb8;" horiz-adv-x="499" 
d="M190 -88l29 111l49 -11v-7l-12 -55q32 -4 52 -23t20 -50q0 -43 -29.5 -63.5t-72.5 -20.5q-28 0 -55 6v59q17 -7 42 -7q48 0 48 31t-53 31z" />
    <glyph glyph-name="onesuperior" unicode="&#xb9;" 
d="M72 423v66h93v249l2 26h-2q-4 -9 -17 -22l-36 -34l-45 49l106 103h67v-371h92v-66h-260z" />
    <glyph glyph-name="ordmasculine" unicode="&#xba;" horiz-adv-x="483" 
d="M241 384q-72 0 -121.5 47.5t-49.5 120.5q0 70 49.5 117.5t120.5 47.5q73 0 122.5 -47t49.5 -118q0 -73 -49.5 -120.5t-121.5 -47.5zM241 449q41 0 69.5 29t28.5 74q0 44 -28.5 72.5t-69.5 28.5q-42 0 -70.5 -28.5t-28.5 -72.5q0 -45 28.5 -74t70.5 -29zM86 265v57h312
v-57h-312z" />
    <glyph glyph-name="guillemotright" unicode="&#xbb;" horiz-adv-x="561" 
d="M254 77l164 205l-164 206h97l164 -206l-164 -205h-97zM53 77l164 205l-164 206h97l164 -206l-164 -205h-97z" />
    <glyph glyph-name="onequarter" unicode="&#xbc;" horiz-adv-x="954" 
d="M778 0v107h-207v50l200 280h81v-264h62v-66h-62v-107h-74zM652 173h126v123l3 58h-2q-13 -27 -29 -48l-98 -131v-2zM336 0h-75l336 706h74zM60 270v66h93v249l2 26h-2q-4 -9 -17 -22l-36 -34l-45 49l106 103h67v-371h92v-66h-260z" />
    <glyph glyph-name="onehalf" unicode="&#xbd;" horiz-adv-x="943" 
d="M602 0q-3 18 -3 36q0 47 22 83.5t53 59t62 42t53 42.5t22 50q0 28 -20.5 46.5t-51.5 18.5q-45 0 -85 -48l-49 45q21 31 58.5 51.5t78.5 20.5q62 0 103 -36.5t41 -94.5q0 -40 -20.5 -72t-50 -52.5t-59.5 -38.5t-52 -39.5t-24 -47.5h213v-66h-291zM336 0h-75l336 706h74z
M59 270v66h93v249l2 26h-2q-4 -9 -17 -22l-36 -34l-45 49l106 103h67v-371h92v-66h-260z" />
    <glyph glyph-name="threequarters" unicode="&#xbe;" horiz-adv-x="970" 
d="M793 0v107h-207v50l200 280h81v-264h62v-66h-62v-107h-74zM667 173h126v123l3 58h-2q-13 -27 -29 -48l-98 -131v-2zM190 260q-42 0 -82 17t-65 49l42 53q15 -21 43 -35.5t59 -14.5q34 0 58.5 22t24.5 54q0 33 -26 52t-62 19h-34l-17 38l89 103l25 24v2q-19 -3 -37 -3
h-141v67h271v-48l-109 -126q50 -7 83.5 -39.5t33.5 -88.5q0 -59 -44 -102t-112 -43zM351 0h-75l336 706h74z" />
    <glyph glyph-name="questiondown" unicode="&#xbf;" horiz-adv-x="457" 
d="M309 311v-47q0 -42 -17.5 -76t-42.5 -57.5l-49.5 -45t-42 -49.5t-17.5 -61q0 -42 32.5 -70.5t81.5 -28.5q61 0 113 42l54 -69q-72 -64 -174 -64q-87 0 -148 51t-61 132q0 46 18 82.5t44 61t52.5 47t44.5 50.5t18 61v41h94zM312 505v-99h-100v99h100z" />
    <glyph glyph-name="Agrave" unicode="&#xc0;" horiz-adv-x="641" 
d="M15 0l253 706h105l253 -706h-102l-71 203h-266l-71 -203h-101zM213 285h214l-78 223l-28 101h-2q-15 -64 -27 -101zM281 755l-95 127h104l73 -127h-82z" />
    <glyph glyph-name="Aacute" unicode="&#xc1;" horiz-adv-x="641" 
d="M15 0l253 706h105l253 -706h-102l-71 203h-266l-71 -203h-101zM213 285h214l-78 223l-28 101h-2q-15 -64 -27 -101zM277 755l72 127h105l-96 -127h-81z" />
    <glyph glyph-name="Acircumflex" unicode="&#xc2;" horiz-adv-x="641" 
d="M15 0l253 706h105l253 -706h-102l-71 203h-266l-71 -203h-101zM213 285h214l-78 223l-28 101h-2q-15 -64 -27 -101zM181 755l88 127h100l89 -127h-85l-53 80h-2l-52 -80h-85z" />
    <glyph glyph-name="Atilde" unicode="&#xc3;" horiz-adv-x="641" 
d="M15 0l253 706h105l253 -706h-102l-71 203h-266l-71 -203h-101zM213 285h214l-78 223l-28 101h-2q-15 -64 -27 -101zM151 756q0 127 102 127q29 0 51 -17t40 -34t35 -17q20 0 29.5 19.5t9.5 45.5h70q0 -127 -102 -127q-29 0 -51 17t-40 34t-35 17q-39 0 -39 -65h-70z" />
    <glyph glyph-name="Adieresis" unicode="&#xc4;" horiz-adv-x="641" 
d="M15 0l253 706h105l253 -706h-102l-71 203h-266l-71 -203h-101zM213 285h214l-78 223l-28 101h-2q-15 -64 -27 -101zM364 781v101h79v-101h-79zM196 781v101h80v-101h-80z" />
    <glyph glyph-name="Aring" unicode="&#xc5;" horiz-adv-x="641" 
d="M15 0l253 706h105l253 -706h-102l-71 203h-266l-71 -203h-101zM213 285h214l-78 223l-28 101h-2q-15 -64 -27 -101zM320 743q-35 0 -60 20.5t-25 53.5q0 34 25 54.5t60 20.5t59.5 -20.5t24.5 -54.5q0 -33 -25 -53.5t-59 -20.5zM320 784q14 0 23.5 9.5t9.5 23.5
q0 16 -9.5 25.5t-23.5 9.5q-15 0 -24 -9.5t-9 -25.5q0 -14 9 -23.5t24 -9.5z" />
    <glyph glyph-name="AE" unicode="&#xc6;" horiz-adv-x="877" 
d="M9 0l292 706h517v-86h-312v-221h253v-86h-253v-227h328v-86h-426v314h-171l-125 -314h-103zM270 396h138v224h-47z" />
    <glyph glyph-name="Ccedilla" unicode="&#xc7;" horiz-adv-x="717" 
d="M352 -88l20 78q-145 13 -233.5 116t-88.5 251q0 155 101.5 258t257.5 103q161 0 258 -93l-50 -74q-39 35 -94.5 56t-109.5 21q-120 0 -190.5 -77t-70.5 -193q0 -117 72 -198t191 -81q59 0 116.5 24.5t100.5 67.5l53 -71q-106 -106 -259 -111l-8 -39q32 -4 52 -23t20 -50
q0 -43 -29.5 -63.5t-72.5 -20.5q-28 0 -55 6v59q17 -7 42 -7q48 0 48 31t-53 31z" />
    <glyph glyph-name="Egrave" unicode="&#xc8;" horiz-adv-x="564" 
d="M93 0v706h411v-86h-312v-221h253v-86h-253v-227h329v-86h-428zM270 755l-95 127h104l73 -127h-82z" />
    <glyph glyph-name="Eacute" unicode="&#xc9;" horiz-adv-x="564" 
d="M265 755l72 127h105l-96 -127h-81zM93 0v706h411v-86h-312v-221h253v-86h-253v-227h329v-86h-428z" />
    <glyph glyph-name="Ecircumflex" unicode="&#xca;" horiz-adv-x="564" 
d="M170 755l88 127h100l89 -127h-85l-53 80h-2l-52 -80h-85zM93 0v706h411v-86h-312v-221h253v-86h-253v-227h329v-86h-428z" />
    <glyph glyph-name="Edieresis" unicode="&#xcb;" horiz-adv-x="564" 
d="M354 781v101h79v-101h-79zM186 781v101h80v-101h-80zM93 0v706h411v-86h-312v-221h253v-86h-253v-227h329v-86h-428z" />
    <glyph glyph-name="Igrave" unicode="&#xcc;" horiz-adv-x="286" 
d="M93 0v706h99v-706h-99zM105 755l-95 127h104l73 -127h-82z" />
    <glyph glyph-name="Iacute" unicode="&#xcd;" horiz-adv-x="286" 
d="M93 0v706h99v-706h-99zM101 755l72 127h105l-96 -127h-81z" />
    <glyph glyph-name="Icircumflex" unicode="&#xce;" horiz-adv-x="286" 
d="M93 0v706h99v-706h-99zM6 755l88 127h100l89 -127h-85l-53 80h-2l-52 -80h-85z" />
    <glyph glyph-name="Idieresis" unicode="&#xcf;" horiz-adv-x="286" 
d="M93 0v706h99v-706h-99zM189 781v101h79v-101h-79zM21 781v101h80v-101h-80z" />
    <glyph glyph-name="Eth" unicode="&#xd0;" horiz-adv-x="743" 
d="M99 0v312h-58v82h58v312h235q163 0 260 -93.5t97 -258.5q0 -166 -97 -260t-260 -94h-235zM197 86h130q121 0 191.5 69.5t70.5 198.5q0 127 -71 196.5t-191 69.5h-130v-226h150v-82h-150v-226z" />
    <glyph glyph-name="Ntilde" unicode="&#xd1;" horiz-adv-x="752" 
d="M93 0v706h98l315 -458l58 -103h2q-6 63 -6 103v458h98v-706h-97l-315 458l-58 103h-2q6 -63 6 -103v-458h-99zM207 756q0 127 102 127q29 0 51 -17t40 -34t35 -17q20 0 29.5 19.5t9.5 45.5h70q0 -127 -102 -127q-29 0 -51 17t-40 34t-35 17q-39 0 -39 -65h-70z" />
    <glyph glyph-name="Ograve" unicode="&#xd2;" horiz-adv-x="823" 
d="M49 358q0 153 103 256.5t260 103.5q156 0 259 -103.5t103 -256.5q0 -157 -103 -263.5t-259 -106.5t-259.5 106.5t-103.5 263.5zM151 358q0 -119 74 -199t187 -80q112 0 186 80t74 199q0 115 -74 192.5t-186 77.5q-113 0 -187 -77.5t-74 -192.5zM372 755l-95 127h104
l73 -127h-82z" />
    <glyph glyph-name="Oacute" unicode="&#xd3;" horiz-adv-x="823" 
d="M368 755l72 127h105l-96 -127h-81zM49 358q0 153 103 256.5t260 103.5q156 0 259 -103.5t103 -256.5q0 -157 -103 -263.5t-259 -106.5t-259.5 106.5t-103.5 263.5zM151 358q0 -119 74 -199t187 -80q112 0 186 80t74 199q0 115 -74 192.5t-186 77.5q-113 0 -187 -77.5
t-74 -192.5z" />
    <glyph glyph-name="Ocircumflex" unicode="&#xd4;" horiz-adv-x="823" 
d="M273 755l88 127h100l89 -127h-85l-53 80h-2l-52 -80h-85zM49 358q0 153 103 256.5t260 103.5q156 0 259 -103.5t103 -256.5q0 -157 -103 -263.5t-259 -106.5t-259.5 106.5t-103.5 263.5zM151 358q0 -119 74 -199t187 -80q112 0 186 80t74 199q0 115 -74 192.5t-186 77.5
q-113 0 -187 -77.5t-74 -192.5z" />
    <glyph glyph-name="Otilde" unicode="&#xd5;" horiz-adv-x="823" 
d="M49 358q0 153 103 256.5t260 103.5q156 0 259 -103.5t103 -256.5q0 -157 -103 -263.5t-259 -106.5t-259.5 106.5t-103.5 263.5zM151 358q0 -119 74 -199t187 -80q112 0 186 80t74 199q0 115 -74 192.5t-186 77.5q-113 0 -187 -77.5t-74 -192.5zM243 756q0 127 102 127
q29 0 51 -17t40 -34t35 -17q20 0 29.5 19.5t9.5 45.5h70q0 -127 -102 -127q-29 0 -51 17t-40 34t-35 17q-39 0 -39 -65h-70z" />
    <glyph glyph-name="Odieresis" unicode="&#xd6;" horiz-adv-x="823" 
d="M456 781v101h79v-101h-79zM288 781v101h80v-101h-80zM49 358q0 153 103 256.5t260 103.5q156 0 259 -103.5t103 -256.5q0 -157 -103 -263.5t-259 -106.5t-259.5 106.5t-103.5 263.5zM151 358q0 -119 74 -199t187 -80q112 0 186 80t74 199q0 115 -74 192.5t-186 77.5
q-113 0 -187 -77.5t-74 -192.5z" />
    <glyph glyph-name="multiply" unicode="&#xd7;" horiz-adv-x="577" 
d="M28 55l207 230l-207 230l56 55l204 -227l204 227l56 -55l-207 -230l207 -230l-56 -55l-204 227l-204 -227z" />
    <glyph glyph-name="Oslash" unicode="&#xd8;" horiz-adv-x="822" 
d="M123 9l49 68q-57 51 -90 124t-33 156q0 153 105 257t258 104q100 0 185 -49l46 63l49 -34l-45 -63q60 -51 93.5 -122.5t33.5 -155.5q0 -155 -104.5 -262t-257.5 -107q-106 0 -192 54l-47 -67zM230 158l311 433q-60 37 -129 37q-109 0 -185 -78t-76 -193q0 -118 79 -199z
M275 119q62 -40 136 -40q109 0 185 80t76 198q0 120 -83 198z" />
    <glyph glyph-name="Ugrave" unicode="&#xd9;" horiz-adv-x="726" 
d="M85 250v456h99v-455q0 -81 48.5 -126.5t130.5 -45.5t130 45.5t48 127.5v454h99v-456q0 -118 -76 -190t-200 -72q-125 0 -202 72t-77 190zM323 755l-95 127h104l73 -127h-82z" />
    <glyph glyph-name="Uacute" unicode="&#xda;" horiz-adv-x="726" 
d="M319 755l72 127h105l-96 -127h-81zM85 250v456h99v-455q0 -81 48.5 -126.5t130.5 -45.5t130 45.5t48 127.5v454h99v-456q0 -118 -76 -190t-200 -72q-125 0 -202 72t-77 190z" />
    <glyph glyph-name="Ucircumflex" unicode="&#xdb;" horiz-adv-x="726" 
d="M224 755l88 127h100l89 -127h-85l-53 80h-2l-52 -80h-85zM85 250v456h99v-455q0 -81 48.5 -126.5t130.5 -45.5t130 45.5t48 127.5v454h99v-456q0 -118 -76 -190t-200 -72q-125 0 -202 72t-77 190z" />
    <glyph glyph-name="Udieresis" unicode="&#xdc;" horiz-adv-x="726" 
d="M407 781v101h79v-101h-79zM239 781v101h80v-101h-80zM85 250v456h99v-455q0 -81 48.5 -126.5t130.5 -45.5t130 45.5t48 127.5v454h99v-456q0 -118 -76 -190t-200 -72q-125 0 -202 72t-77 190z" />
    <glyph glyph-name="Yacute" unicode="&#xdd;" horiz-adv-x="592" 
d="M247 0v299l-237 407h112l130 -232l43 -89h2q21 48 43 89l130 232h112l-237 -407v-299h-98zM252 755l72 127h105l-96 -127h-81z" />
    <glyph glyph-name="Thorn" unicode="&#xde;" horiz-adv-x="608" 
d="M93 0v706h99v-120h160q98 0 159.5 -60.5t61.5 -160.5t-62 -162t-160 -62h-159v-141h-99zM192 227h144q63 0 100 37t37 101q0 63 -36.5 99t-99.5 36h-145v-273z" />
    <glyph glyph-name="germandbls" unicode="&#xdf;" horiz-adv-x="588" 
d="M75 0v530q0 87 64.5 137.5t151.5 50.5q82 0 136 -46.5t54 -114.5q0 -33 -15.5 -61.5t-34.5 -45.5t-34.5 -38t-15.5 -41q0 -17 18.5 -35t45 -36t52.5 -38.5t44.5 -51t18.5 -65.5q0 -73 -49.5 -112.5t-121.5 -39.5q-87 0 -142 29v86q60 -31 130 -31q36 0 60 18t24 54
q0 27 -28 53.5t-61.5 46t-61.5 51.5t-28 68q0 28 16 54t34.5 43.5t34.5 42t16 48.5q0 31 -25.5 54.5t-69.5 23.5q-48 0 -82 -29t-34 -82v-523h-97z" />
    <glyph glyph-name="agrave" unicode="&#xe0;" horiz-adv-x="527" 
d="M33 138q0 56 31 94t82.5 54.5t95.5 22.5t93 6h26v10q0 111 -111 111q-73 0 -142 -49l-39 71q31 26 84 43t105 17q96 0 148 -51t52 -147v-320h-91v51l3 40h-2q-23 -45 -67.5 -74t-98.5 -29q-69 0 -119 41t-50 109zM130 146q0 -33 25 -57t70 -24q60 0 98 50t38 111v19h-25
q-206 0 -206 -99zM223 580l-95 127h104l73 -127h-82z" />
    <glyph glyph-name="aacute" unicode="&#xe1;" horiz-adv-x="527" 
d="M33 138q0 56 31 94t82.5 54.5t95.5 22.5t93 6h26v10q0 111 -111 111q-73 0 -142 -49l-39 71q31 26 84 43t105 17q96 0 148 -51t52 -147v-320h-91v51l3 40h-2q-23 -45 -67.5 -74t-98.5 -29q-69 0 -119 41t-50 109zM130 146q0 -33 25 -57t70 -24q60 0 98 50t38 111v19h-25
q-206 0 -206 -99zM216 580l72 127h105l-96 -127h-81z" />
    <glyph glyph-name="acircumflex" unicode="&#xe2;" horiz-adv-x="527" 
d="M33 138q0 56 31 94t82.5 54.5t95.5 22.5t93 6h26v10q0 111 -111 111q-73 0 -142 -49l-39 71q31 26 84 43t105 17q96 0 148 -51t52 -147v-320h-91v51l3 40h-2q-23 -45 -67.5 -74t-98.5 -29q-69 0 -119 41t-50 109zM130 146q0 -33 25 -57t70 -24q60 0 98 50t38 111v19h-25
q-206 0 -206 -99zM121 580l88 127h100l89 -127h-85l-53 80h-2l-52 -80h-85z" />
    <glyph glyph-name="atilde" unicode="&#xe3;" horiz-adv-x="527" 
d="M33 138q0 56 31 94t82.5 54.5t95.5 22.5t93 6h26v10q0 111 -111 111q-73 0 -142 -49l-39 71q31 26 84 43t105 17q96 0 148 -51t52 -147v-320h-91v51l3 40h-2q-23 -45 -67.5 -74t-98.5 -29q-69 0 -119 41t-50 109zM130 146q0 -33 25 -57t70 -24q60 0 98 50t38 111v19h-25
q-206 0 -206 -99zM92 581q0 127 102 127q29 0 51 -17t40 -34t35 -17q20 0 29.5 19.5t9.5 45.5h70q0 -127 -102 -127q-29 0 -51 17t-40 34t-35 17q-39 0 -39 -65h-70z" />
    <glyph glyph-name="adieresis" unicode="&#xe4;" horiz-adv-x="527" 
d="M33 138q0 56 31 94t82.5 54.5t95.5 22.5t93 6h26v10q0 111 -111 111q-73 0 -142 -49l-39 71q31 26 84 43t105 17q96 0 148 -51t52 -147v-320h-91v51l3 40h-2q-23 -45 -67.5 -74t-98.5 -29q-69 0 -119 41t-50 109zM130 146q0 -33 25 -57t70 -24q60 0 98 50t38 111v19h-25
q-206 0 -206 -99zM305 606v101h79v-101h-79zM137 606v101h80v-101h-80z" />
    <glyph glyph-name="aring" unicode="&#xe5;" horiz-adv-x="527" 
d="M33 138q0 56 31 94t82.5 54.5t95.5 22.5t93 6h26v10q0 111 -111 111q-73 0 -142 -49l-39 71q31 26 84 43t105 17q96 0 148 -51t52 -147v-320h-91v51l3 40h-2q-23 -45 -67.5 -74t-98.5 -29q-69 0 -119 41t-50 109zM130 146q0 -33 25 -57t70 -24q60 0 98 50t38 111v19h-25
q-206 0 -206 -99zM260 568q-35 0 -60 20.5t-25 53.5q0 34 25 54.5t60 20.5t59.5 -20.5t24.5 -54.5q0 -33 -25 -53.5t-59 -20.5zM260 609q14 0 23.5 9.5t9.5 23.5q0 16 -9.5 25.5t-23.5 9.5q-15 0 -24 -9.5t-9 -25.5q0 -14 9 -23.5t24 -9.5z" />
    <glyph glyph-name="ae" unicode="&#xe6;" horiz-adv-x="863" 
d="M34 142q0 39 14.5 69t41.5 48t55 29.5t66.5 16.5t65 6.5t59.5 1.5h25v12q0 111 -114 111q-72 0 -140 -49l-39 71q32 27 83.5 43.5t101.5 16.5q128 0 169 -89h2q60 89 179 89q101 0 159 -67t58 -168q0 -13 -2 -41h-364q4 -81 51 -125.5t118 -44.5q84 0 150 58l40 -70
q-35 -32 -89 -52t-107 -20q-75 0 -131 33t-86 93h-2q-5 -14 -16.5 -31t-33 -40t-59 -38.5t-82.5 -15.5q-73 0 -123 41t-50 112zM458 313h264q-2 60 -36.5 93.5t-83.5 33.5q-57 0 -95.5 -33t-48.5 -94zM132 147q0 -34 25 -57.5t71 -23.5q59 0 96.5 50.5t37.5 111.5v14h-48
q-182 0 -182 -95z" />
    <glyph glyph-name="ccedilla" unicode="&#xe7;" horiz-adv-x="546" 
d="M251 -88l20 79q-103 14 -166 86t-63 176q0 113 76.5 189t194.5 76q120 0 190 -74l-46 -68q-58 58 -140 58q-76 0 -126 -51.5t-50 -128.5q0 -78 50.5 -130t128.5 -52q42 0 84.5 18.5t71.5 49.5l39 -71q-71 -76 -190 -81l-8 -38q32 -4 52 -23t20 -50q0 -43 -29.5 -63.5
t-72.5 -20.5q-28 0 -55 6v59q18 -7 42 -7q48 0 48 31t-53 31z" />
    <glyph glyph-name="egrave" unicode="&#xe8;" horiz-adv-x="557" 
d="M42 253q0 119 72 192t182 73q103 0 161 -67.5t58 -169.5q0 -13 -4 -41h-368q4 -79 53.5 -123.5t120.5 -44.5q83 0 149 59l41 -71q-36 -33 -89.5 -52.5t-106.5 -19.5q-118 0 -193.5 75.5t-75.5 189.5zM146 310h271q-2 63 -36.5 98t-86.5 35q-57 0 -97.5 -35.5t-50.5 -97.5
zM257 580l-95 127h104l73 -127h-82z" />
    <glyph glyph-name="eacute" unicode="&#xe9;" horiz-adv-x="557" 
d="M251 580l72 127h105l-96 -127h-81zM42 253q0 119 72 192t182 73q103 0 161 -67.5t58 -169.5q0 -13 -4 -41h-368q4 -79 53.5 -123.5t120.5 -44.5q83 0 149 59l41 -71q-36 -33 -89.5 -52.5t-106.5 -19.5q-118 0 -193.5 75.5t-75.5 189.5zM146 310h271q-2 63 -36.5 98
t-86.5 35q-57 0 -97.5 -35.5t-50.5 -97.5z" />
    <glyph glyph-name="ecircumflex" unicode="&#xea;" horiz-adv-x="557" 
d="M156 580l88 127h100l89 -127h-85l-53 80h-2l-52 -80h-85zM42 253q0 119 72 192t182 73q103 0 161 -67.5t58 -169.5q0 -13 -4 -41h-368q4 -79 53.5 -123.5t120.5 -44.5q83 0 149 59l41 -71q-36 -33 -89.5 -52.5t-106.5 -19.5q-118 0 -193.5 75.5t-75.5 189.5zM146 310h271
q-2 63 -36.5 98t-86.5 35q-57 0 -97.5 -35.5t-50.5 -97.5z" />
    <glyph glyph-name="edieresis" unicode="&#xeb;" horiz-adv-x="557" 
d="M340 606v101h79v-101h-79zM172 606v101h80v-101h-80zM42 253q0 119 72 192t182 73q103 0 161 -67.5t58 -169.5q0 -13 -4 -41h-368q4 -79 53.5 -123.5t120.5 -44.5q83 0 149 59l41 -71q-36 -33 -89.5 -52.5t-106.5 -19.5q-118 0 -193.5 75.5t-75.5 189.5zM146 310h271
q-2 63 -36.5 98t-86.5 35q-57 0 -97.5 -35.5t-50.5 -97.5z" />
    <glyph glyph-name="igrave" unicode="&#xec;" horiz-adv-x="246" 
d="M75 0v506h97v-506h-97zM86 580l-95 127h104l73 -127h-82z" />
    <glyph glyph-name="iacute" unicode="&#xed;" horiz-adv-x="246" 
d="M81 580l72 127h105l-96 -127h-81zM75 0v506h97v-506h-97z" />
    <glyph glyph-name="icircumflex" unicode="&#xee;" horiz-adv-x="246" 
d="M-14 580l88 127h100l89 -127h-85l-53 80h-2l-52 -80h-85zM75 0v506h97v-506h-97z" />
    <glyph glyph-name="idieresis" unicode="&#xef;" horiz-adv-x="246" 
d="M170 606v101h79v-101h-79zM2 606v101h80v-101h-80zM75 0v506h97v-506h-97z" />
    <glyph glyph-name="eth" unicode="&#xf0;" horiz-adv-x="581" 
d="M44 235q0 94 63.5 162.5t173.5 68.5q36 0 66.5 -10.5t43.5 -21.5l13 -10h2q-30 80 -109 133l-181 -80l-10 62l124 55q-56 29 -129 46l27 79q121 -29 207 -80l139 61l9 -61l-92 -42q144 -120 144 -322q0 -53 -14.5 -102t-43.5 -91.5t-80 -68t-116 -25.5
q-108 0 -172.5 73.5t-64.5 173.5zM143 233q0 -66 37 -114t104 -48q75 0 113.5 56.5t38.5 130.5q0 57 -38.5 93.5t-102.5 36.5q-73 0 -112.5 -45.5t-39.5 -109.5z" />
    <glyph glyph-name="ntilde" unicode="&#xf1;" horiz-adv-x="603" 
d="M75 0v506h94v-69l-3 -38h2q19 43 68.5 81t123.5 38q173 0 173 -194v-324h-97v302q0 61 -19.5 94t-75.5 33q-73 0 -121 -53.5t-48 -132.5v-243h-97zM143 581q0 127 102 127q29 0 51 -17t40 -34t35 -17q20 0 29.5 19.5t9.5 45.5h70q0 -127 -102 -127q-29 0 -51 17t-40 34
t-35 17q-39 0 -39 -65h-70z" />
    <glyph glyph-name="ograve" unicode="&#xf2;" horiz-adv-x="629" 
d="M42 254q0 113 79 188.5t193 75.5q115 0 194 -75t79 -189t-79 -190t-193 -76t-193.5 76t-79.5 190zM141 254q0 -79 50.5 -130.5t123.5 -51.5q72 0 123 52t51 130t-51 129t-123 51q-73 0 -123.5 -51t-50.5 -129zM275 580l-95 127h104l73 -127h-82z" />
    <glyph glyph-name="oacute" unicode="&#xf3;" horiz-adv-x="629" 
d="M271 580l72 127h105l-96 -127h-81zM42 254q0 113 79 188.5t193 75.5q115 0 194 -75t79 -189t-79 -190t-193 -76t-193.5 76t-79.5 190zM141 254q0 -79 50.5 -130.5t123.5 -51.5q72 0 123 52t51 130t-51 129t-123 51q-73 0 -123.5 -51t-50.5 -129z" />
    <glyph glyph-name="ocircumflex" unicode="&#xf4;" horiz-adv-x="629" 
d="M176 580l88 127h100l89 -127h-85l-53 80h-2l-52 -80h-85zM42 254q0 113 79 188.5t193 75.5q115 0 194 -75t79 -189t-79 -190t-193 -76t-193.5 76t-79.5 190zM141 254q0 -79 50.5 -130.5t123.5 -51.5q72 0 123 52t51 130t-51 129t-123 51q-73 0 -123.5 -51t-50.5 -129z
" />
    <glyph glyph-name="otilde" unicode="&#xf5;" horiz-adv-x="629" 
d="M42 254q0 113 79 188.5t193 75.5q115 0 194 -75t79 -189t-79 -190t-193 -76t-193.5 76t-79.5 190zM141 254q0 -79 50.5 -130.5t123.5 -51.5q72 0 123 52t51 130t-51 129t-123 51q-73 0 -123.5 -51t-50.5 -129zM146 581q0 127 102 127q29 0 51 -17t40 -34t35 -17
q20 0 29.5 19.5t9.5 45.5h70q0 -127 -102 -127q-29 0 -51 17t-40 34t-35 17q-39 0 -39 -65h-70z" />
    <glyph glyph-name="odieresis" unicode="&#xf6;" horiz-adv-x="629" 
d="M359 606v101h79v-101h-79zM191 606v101h80v-101h-80zM42 254q0 113 79 188.5t193 75.5q115 0 194 -75t79 -189t-79 -190t-193 -76t-193.5 76t-79.5 190zM141 254q0 -79 50.5 -130.5t123.5 -51.5q72 0 123 52t51 130t-51 129t-123 51q-73 0 -123.5 -51t-50.5 -129z" />
    <glyph glyph-name="divide" unicode="&#xf7;" horiz-adv-x="577" 
d="M241 435v91h94v-91h-94zM36 246v78h505v-78h-505zM241 44v91h94v-91h-94z" />
    <glyph glyph-name="oslash" unicode="&#xf8;" horiz-adv-x="630" 
d="M100 -4l38 53q-96 78 -96 205q0 114 79 189t194 75q72 0 135 -33l40 55l47 -34l-39 -54q90 -77 90 -198q0 -114 -79.5 -190t-193.5 -76q-71 0 -128 30l-39 -56zM192 125l206 287q-38 22 -83 22q-72 0 -123 -51t-51 -129q0 -76 51 -129zM239 90q38 -18 76 -18
q73 0 123.5 51.5t50.5 130.5q0 72 -46 120z" />
    <glyph glyph-name="ugrave" unicode="&#xf9;" horiz-adv-x="597" 
d="M69 182v324h97v-302q0 -60 20 -93t75 -33q75 0 120 56t45 135v237h96v-506h-94v70l4 37h-2q-20 -45 -70 -82t-118 -37q-173 0 -173 194zM257 580l-95 127h104l73 -127h-82z" />
    <glyph glyph-name="uacute" unicode="&#xfa;" horiz-adv-x="597" 
d="M252 580l72 127h105l-96 -127h-81zM69 182v324h97v-302q0 -60 20 -93t75 -33q75 0 120 56t45 135v237h96v-506h-94v70l4 37h-2q-20 -45 -70 -82t-118 -37q-173 0 -173 194z" />
    <glyph glyph-name="ucircumflex" unicode="&#xfb;" horiz-adv-x="597" 
d="M156 580l88 127h100l89 -127h-85l-53 80h-2l-52 -80h-85zM69 182v324h97v-302q0 -60 20 -93t75 -33q75 0 120 56t45 135v237h96v-506h-94v70l4 37h-2q-20 -45 -70 -82t-118 -37q-173 0 -173 194z" />
    <glyph glyph-name="udieresis" unicode="&#xfc;" horiz-adv-x="597" 
d="M340 606v101h79v-101h-79zM172 606v101h80v-101h-80zM69 182v324h97v-302q0 -60 20 -93t75 -33q75 0 120 56t45 135v237h96v-506h-94v70l4 37h-2q-20 -45 -70 -82t-118 -37q-173 0 -173 194z" />
    <glyph glyph-name="yacute" unicode="&#xfd;" horiz-adv-x="535" 
d="M50 -105q28 -22 58 -22q61 0 92 75l25 58l-212 500h109l127 -331l19 -61h2q8 34 17 60l123 332h105l-238 -597q-22 -58 -65.5 -88.5t-98.5 -30.5q-25 0 -49 8t-36 16l-12 7zM225 580l72 127h105l-96 -127h-81z" />
    <glyph glyph-name="thorn" unicode="&#xfe;" horiz-adv-x="600" 
d="M75 -200v906h97v-231l-2 -41h2q21 38 62.5 61t97.5 23q102 0 163 -74t61 -191t-63.5 -191t-163.5 -74q-48 0 -91.5 21.5t-65.5 61.5h-2q2 -18 2 -44v-227h-97zM169 252q0 -80 39.5 -130.5t105.5 -50.5q62 0 103 50.5t41 131.5q0 80 -39.5 130.5t-102.5 50.5t-105 -45
t-42 -137z" />
    <glyph glyph-name="ydieresis" unicode="&#xff;" horiz-adv-x="535" 
d="M50 -105q28 -22 58 -22q61 0 92 75l25 58l-212 500h109l127 -331l19 -61h2q8 34 17 60l123 332h105l-238 -597q-22 -58 -65.5 -88.5t-98.5 -30.5q-25 0 -49 8t-36 16l-12 7zM313 606v101h79v-101h-79zM145 606v101h80v-101h-80z" />
    <glyph glyph-name="Amacron" unicode="&#x100;" horiz-adv-x="641" 
d="M15 0l253 706h105l253 -706h-102l-71 203h-266l-71 -203h-101zM213 285h214l-78 223l-28 101h-2q-15 -64 -27 -101zM193 784v71h254v-71h-254z" />
    <glyph glyph-name="amacron" unicode="&#x101;" horiz-adv-x="527" 
d="M33 138q0 56 31 94t82.5 54.5t95.5 22.5t93 6h26v10q0 111 -111 111q-73 0 -142 -49l-39 71q31 26 84 43t105 17q96 0 148 -51t52 -147v-320h-91v51l3 40h-2q-23 -45 -67.5 -74t-98.5 -29q-69 0 -119 41t-50 109zM130 146q0 -33 25 -57t70 -24q60 0 98 50t38 111v19h-25
q-206 0 -206 -99zM134 609v71h254v-71h-254z" />
    <glyph glyph-name="Abreve" unicode="&#x102;" horiz-adv-x="641" 
d="M15 0l253 706h105l253 -706h-102l-71 203h-266l-71 -203h-101zM213 285h214l-78 223l-28 101h-2q-15 -64 -27 -101zM320 751q-55 0 -93.5 31t-38.5 86v14h72v-13q0 -30 17.5 -45t42.5 -15q24 0 41.5 15.5t17.5 45.5v12h72v-14q0 -55 -38.5 -86t-92.5 -31z" />
    <glyph glyph-name="abreve" unicode="&#x103;" horiz-adv-x="527" 
d="M33 138q0 56 31 94t82.5 54.5t95.5 22.5t93 6h26v10q0 111 -111 111q-73 0 -142 -49l-39 71q31 26 84 43t105 17q96 0 148 -51t52 -147v-320h-91v51l3 40h-2q-23 -45 -67.5 -74t-98.5 -29q-69 0 -119 41t-50 109zM130 146q0 -33 25 -57t70 -24q60 0 98 50t38 111v19h-25
q-206 0 -206 -99zM260 576q-55 0 -93.5 31t-38.5 86v14h72v-13q0 -30 17.5 -45t42.5 -15q24 0 41.5 15.5t17.5 45.5v12h72v-14q0 -55 -38.5 -86t-92.5 -31z" />
    <glyph glyph-name="Aogonek" unicode="&#x104;" horiz-adv-x="641" 
d="M15 0l253 706h105l253 -706q-64 -51 -64 -89q0 -17 14 -27.5t28 -13.5l13 -2l-23 -75q-5 0 -12.5 1.5t-27.5 7.5t-35.5 15.5t-28 28t-12.5 42.5q0 60 66 112h-20l-71 203h-266l-71 -203h-101zM213 285h214l-78 223l-28 101h-2q-15 -64 -27 -101z" />
    <glyph glyph-name="aogonek" unicode="&#x105;" horiz-adv-x="527" 
d="M33 138q0 56 31 94t82.5 54.5t95.5 22.5t93 6h26v10q0 111 -111 111q-73 0 -142 -49l-39 71q31 26 84 43t105 17q96 0 148 -51t52 -147v-320q-65 -50 -65 -89q0 -17 13.5 -27.5t27.5 -13.5l14 -2l-22 -75q-5 0 -13 1.5t-28 7.5t-35.5 15.5t-28 28t-12.5 42.5q0 57 69 112
h-11v51l3 40h-2q-23 -45 -67.5 -74t-98.5 -29q-69 0 -119 41t-50 109zM130 146q0 -33 25 -57t70 -24q60 0 98 50t38 111v19h-25q-206 0 -206 -99z" />
    <glyph glyph-name="Cacute" unicode="&#x106;" horiz-adv-x="717" 
d="M358 755l72 127h105l-96 -127h-81zM50 357q0 155 101.5 258t257.5 103q161 0 258 -93l-50 -74q-39 35 -94.5 56t-109.5 21q-120 0 -190.5 -77t-70.5 -193q0 -117 72 -198t191 -81q59 0 116.5 24.5t100.5 67.5l53 -71q-112 -112 -273 -112t-261.5 105.5t-100.5 263.5z" />
    <glyph glyph-name="cacute" unicode="&#x107;" horiz-adv-x="545" 
d="M249 580l72 127h105l-96 -127h-81zM42 253q0 113 76.5 189t194.5 76q120 0 190 -74l-46 -68q-58 58 -140 58q-76 0 -126 -51.5t-50 -128.5q0 -78 50.5 -130t128.5 -52q42 0 84.5 18.5t71.5 49.5l39 -71q-35 -37 -89 -59t-113 -22q-119 0 -195 75t-76 190z" />
    <glyph glyph-name="Ccircumflex" unicode="&#x108;" horiz-adv-x="717" 
d="M263 755l88 127h100l89 -127h-85l-53 80h-2l-52 -80h-85zM50 357q0 155 101.5 258t257.5 103q161 0 258 -93l-50 -74q-39 35 -94.5 56t-109.5 21q-120 0 -190.5 -77t-70.5 -193q0 -117 72 -198t191 -81q59 0 116.5 24.5t100.5 67.5l53 -71q-112 -112 -273 -112
t-261.5 105.5t-100.5 263.5z" />
    <glyph glyph-name="ccircumflex" unicode="&#x109;" horiz-adv-x="545" 
d="M154 580l88 127h100l89 -127h-85l-53 80h-2l-52 -80h-85zM42 253q0 113 76.5 189t194.5 76q120 0 190 -74l-46 -68q-58 58 -140 58q-76 0 -126 -51.5t-50 -128.5q0 -78 50.5 -130t128.5 -52q42 0 84.5 18.5t71.5 49.5l39 -71q-35 -37 -89 -59t-113 -22q-119 0 -195 75
t-76 190z" />
    <glyph glyph-name="Cdotaccent" unicode="&#x10a;" horiz-adv-x="717" 
d="M50 357q0 155 101.5 258t257.5 103q161 0 258 -93l-50 -74q-39 35 -94.5 56t-109.5 21q-120 0 -190.5 -77t-70.5 -193q0 -117 72 -198t191 -81q59 0 116.5 24.5t100.5 67.5l53 -71q-112 -112 -273 -112t-261.5 105.5t-100.5 263.5zM359 784v98h86v-98h-86z" />
    <glyph glyph-name="cdotaccent" unicode="&#x10b;" horiz-adv-x="545" 
d="M42 253q0 113 76.5 189t194.5 76q120 0 190 -74l-46 -68q-58 58 -140 58q-76 0 -126 -51.5t-50 -128.5q0 -78 50.5 -130t128.5 -52q42 0 84.5 18.5t71.5 49.5l39 -71q-35 -37 -89 -59t-113 -22q-119 0 -195 75t-76 190zM251 609v98h86v-98h-86z" />
    <glyph glyph-name="Ccaron" unicode="&#x10c;" horiz-adv-x="717" 
d="M351 755l-88 127h85l52 -81h2l53 81h85l-89 -127h-100zM50 357q0 155 101.5 258t257.5 103q161 0 258 -93l-50 -74q-39 35 -94.5 56t-109.5 21q-120 0 -190.5 -77t-70.5 -193q0 -117 72 -198t191 -81q59 0 116.5 24.5t100.5 67.5l53 -71q-112 -112 -273 -112
t-261.5 105.5t-100.5 263.5z" />
    <glyph glyph-name="ccaron" unicode="&#x10d;" horiz-adv-x="545" 
d="M242 580l-88 127h85l52 -81h2l53 81h85l-89 -127h-100zM42 253q0 113 76.5 189t194.5 76q120 0 190 -74l-46 -68q-58 58 -140 58q-76 0 -126 -51.5t-50 -128.5q0 -78 50.5 -130t128.5 -52q42 0 84.5 18.5t71.5 49.5l39 -71q-35 -37 -89 -59t-113 -22q-119 0 -195 75
t-76 190z" />
    <glyph glyph-name="Dcaron" unicode="&#x10e;" horiz-adv-x="737" 
d="M291 755l-88 127h85l52 -81h2l53 81h85l-89 -127h-100zM93 0v706h235q163 0 260 -93.5t97 -258.5q0 -166 -97 -260t-260 -94h-235zM192 86h129q121 0 191.5 69.5t70.5 198.5q0 127 -71 196.5t-191 69.5h-129v-534z" />
    <glyph glyph-name="dcaron" unicode="&#x10f;" horiz-adv-x="610" 
d="M583 705h85q7 -27 7 -51q0 -41 -25 -94h-74q19 54 19 84t-12 61zM44 253q0 120 64 192.5t165 72.5q49 0 91 -21.5t66 -61.5h2q-2 15 -2 34v237h96v-706h-92v51l3 34h-2q-23 -43 -66.5 -70t-101.5 -27q-101 0 -162 73t-61 192zM143 253q0 -82 39.5 -131.5t103.5 -49.5
q62 0 104 46t42 136q0 74 -37.5 126.5t-106.5 52.5q-62 0 -103.5 -48.5t-41.5 -131.5z" />
    <glyph glyph-name="Dcroat" unicode="&#x110;" horiz-adv-x="743" 
d="M99 0v312h-58v82h58v312h235q163 0 260 -93.5t97 -258.5q0 -166 -97 -260t-260 -94h-235zM197 86h130q121 0 191.5 69.5t70.5 198.5q0 127 -71 196.5t-191 69.5h-130v-226h150v-82h-150v-226z" />
    <glyph glyph-name="dcroat" unicode="&#x111;" horiz-adv-x="601" 
d="M44 253q0 120 64 192.5t165 72.5q48 0 90.5 -20.5t65.5 -59.5h2q-1 15 -1 34v91h-131v63h131v80h96v-80h76v-63h-76v-563h-92v48l1 34h-2q-23 -43 -66 -68.5t-100 -25.5q-101 0 -162 73t-61 192zM143 253q0 -82 39.5 -131.5t103.5 -49.5q62 0 104 46t42 136
q0 74 -37.5 127t-106.5 53q-62 0 -103.5 -49t-41.5 -132z" />
    <glyph glyph-name="Emacron" unicode="&#x112;" horiz-adv-x="564" 
d="M93 0v706h411v-86h-312v-221h253v-86h-253v-227h329v-86h-428zM183 784v71h254v-71h-254z" />
    <glyph glyph-name="emacron" unicode="&#x113;" horiz-adv-x="557" 
d="M42 253q0 119 72 192t182 73q103 0 161 -67.5t58 -169.5q0 -13 -4 -41h-368q4 -79 53.5 -123.5t120.5 -44.5q83 0 149 59l41 -71q-36 -33 -89.5 -52.5t-106.5 -19.5q-118 0 -193.5 75.5t-75.5 189.5zM146 310h271q-2 63 -36.5 98t-86.5 35q-57 0 -97.5 -35.5t-50.5 -97.5
zM169 609v71h254v-71h-254z" />
    <glyph glyph-name="Ebreve" unicode="&#x114;" horiz-adv-x="564" 
d="M93 0v706h411v-86h-312v-221h253v-86h-253v-227h329v-86h-428zM309 751q-55 0 -93.5 31t-38.5 86v14h72v-13q0 -30 17.5 -45t42.5 -15q24 0 41.5 15.5t17.5 45.5v12h72v-14q0 -55 -38.5 -86t-92.5 -31z" />
    <glyph glyph-name="ebreve" unicode="&#x115;" horiz-adv-x="557" 
d="M42 253q0 119 72 192t182 73q103 0 161 -67.5t58 -169.5q0 -13 -4 -41h-368q4 -79 53.5 -123.5t120.5 -44.5q83 0 149 59l41 -71q-36 -33 -89.5 -52.5t-106.5 -19.5q-118 0 -193.5 75.5t-75.5 189.5zM146 310h271q-2 63 -36.5 98t-86.5 35q-57 0 -97.5 -35.5t-50.5 -97.5
zM295 576q-55 0 -93.5 31t-38.5 86v14h72v-13q0 -30 17.5 -45t42.5 -15q24 0 41.5 15.5t17.5 45.5v12h72v-14q0 -55 -38.5 -86t-92.5 -31z" />
    <glyph glyph-name="Edotaccent" unicode="&#x116;" horiz-adv-x="564" 
d="M93 0v706h411v-86h-312v-221h253v-86h-253v-227h329v-86h-428zM266 784v98h86v-98h-86z" />
    <glyph glyph-name="edotaccent" unicode="&#x117;" horiz-adv-x="557" 
d="M42 253q0 119 72 192t182 73q103 0 161 -67.5t58 -169.5q0 -13 -4 -41h-368q4 -79 53.5 -123.5t120.5 -44.5q83 0 149 59l41 -71q-36 -33 -89.5 -52.5t-106.5 -19.5q-118 0 -193.5 75.5t-75.5 189.5zM146 310h271q-2 63 -36.5 98t-86.5 35q-57 0 -97.5 -35.5t-50.5 -97.5
zM252 609v98h86v-98h-86z" />
    <glyph glyph-name="Eogonek" unicode="&#x118;" horiz-adv-x="564" 
d="M93 0v706h411v-86h-312v-221h253v-86h-253v-227h329v-86q-65 -50 -65 -89q0 -17 14 -27.5t28 -13.5l14 -2l-23 -75q-5 0 -12.5 1.5t-27.5 7.5t-35.5 15.5t-28 28t-12.5 42.5q0 59 71 112h-351z" />
    <glyph glyph-name="eogonek" unicode="&#x119;" horiz-adv-x="557" 
d="M42 253q0 119 72 192t182 73q103 0 161 -67.5t58 -169.5l-4 -41h-368q4 -79 53.5 -123.5t120.5 -44.5q82 0 149 59l40 -71q-10 -10 -48.5 -38t-62 -55t-23.5 -56q0 -17 14 -27.5t28 -13.5l13 -2l-22 -75q-5 0 -13 1.5t-28 7.5t-35.5 15.5t-28 28t-12.5 42.5q0 53 61 104
q-22 -4 -38 -4q-118 0 -193.5 75.5t-75.5 189.5zM146 310h271q-2 63 -36.5 98t-86.5 35q-57 0 -97.5 -36t-50.5 -97z" />
    <glyph glyph-name="Ecaron" unicode="&#x11a;" horiz-adv-x="564" 
d="M258 755l-88 127h85l52 -81h2l53 81h85l-89 -127h-100zM93 0v706h411v-86h-312v-221h253v-86h-253v-227h329v-86h-428z" />
    <glyph glyph-name="ecaron" unicode="&#x11b;" horiz-adv-x="557" 
d="M244 580l-88 127h85l52 -81h2l53 81h85l-89 -127h-100zM42 253q0 119 72 192t182 73q103 0 161 -67.5t58 -169.5q0 -13 -4 -41h-368q4 -79 53.5 -123.5t120.5 -44.5q83 0 149 59l41 -71q-36 -33 -89.5 -52.5t-106.5 -19.5q-118 0 -193.5 75.5t-75.5 189.5zM146 310h271
q-2 63 -36.5 98t-86.5 35q-57 0 -97.5 -35.5t-50.5 -97.5z" />
    <glyph glyph-name="Gcircumflex" unicode="&#x11c;" horiz-adv-x="762" 
d="M260 755l88 127h100l89 -127h-85l-53 80h-2l-52 -80h-85zM50 354q0 154 103 259t257 105q155 0 257 -86l-50 -73q-36 30 -91.5 49.5t-108.5 19.5q-120 0 -192.5 -78t-72.5 -194q0 -121 74 -199t185 -78q115 0 200 88v102h-114v86h205v-355h-87v44l1 30h-2
q-37 -39 -95 -62.5t-122 -23.5q-145 0 -246 103.5t-101 262.5z" />
    <glyph glyph-name="gcircumflex" unicode="&#x11d;" horiz-adv-x="594" 
d="M150 580l88 127h100l89 -127h-85l-53 80h-2l-52 -80h-85zM123 -92q68 -34 139 -34t115.5 34.5t44.5 106.5v41l3 32h-2q-49 -82 -152 -82t-164.5 73t-61.5 185t59 183t162 71q51 0 94 -19t66 -58h3q-3 6 -3 15v50h93v-485q0 -60 -21.5 -106t-58.5 -72.5t-81 -39.5t-94 -13
q-89 0 -173 42zM143 267q0 -80 39.5 -128.5t107.5 -48.5q59 0 96.5 41t37.5 133q0 170 -143 170q-65 0 -101.5 -44.5t-36.5 -122.5z" />
    <glyph glyph-name="Gbreve" unicode="&#x11e;" horiz-adv-x="762" 
d="M50 354q0 154 103 259t257 105q155 0 257 -86l-50 -73q-36 30 -91.5 49.5t-108.5 19.5q-120 0 -192.5 -78t-72.5 -194q0 -121 74 -199t185 -78q115 0 200 88v102h-114v86h205v-355h-87v44l1 30h-2q-37 -39 -95 -62.5t-122 -23.5q-145 0 -246 103.5t-101 262.5zM400 751
q-55 0 -93.5 31t-38.5 86v14h72v-13q0 -30 17.5 -45t42.5 -15q24 0 41.5 15.5t17.5 45.5v12h72v-14q0 -55 -38.5 -86t-92.5 -31z" />
    <glyph glyph-name="gbreve" unicode="&#x11f;" horiz-adv-x="594" 
d="M123 -92q68 -34 139 -34t115.5 34.5t44.5 106.5v41l3 32h-2q-49 -82 -152 -82t-164.5 73t-61.5 185t59 183t162 71q51 0 94 -19t66 -58h3q-3 6 -3 15v50h93v-485q0 -60 -21.5 -106t-58.5 -72.5t-81 -39.5t-94 -13q-89 0 -173 42zM143 267q0 -80 39.5 -128.5t107.5 -48.5
q59 0 96.5 41t37.5 133q0 170 -143 170q-65 0 -101.5 -44.5t-36.5 -122.5zM289 576q-55 0 -93.5 31t-38.5 86v14h72v-13q0 -30 17.5 -45t42.5 -15q24 0 41.5 15.5t17.5 45.5v12h72v-14q0 -55 -38.5 -86t-92.5 -31z" />
    <glyph glyph-name="Gdotaccent" unicode="&#x120;" horiz-adv-x="762" 
d="M50 354q0 154 103 259t257 105q155 0 257 -86l-50 -73q-36 30 -91.5 49.5t-108.5 19.5q-120 0 -192.5 -78t-72.5 -194q0 -121 74 -199t185 -78q115 0 200 88v102h-114v86h205v-355h-87v44l1 30h-2q-37 -39 -95 -62.5t-122 -23.5q-145 0 -246 103.5t-101 262.5zM357 784
v98h86v-98h-86z" />
    <glyph glyph-name="gdotaccent" unicode="&#x121;" horiz-adv-x="594" 
d="M123 -92q68 -34 139 -34t115.5 34.5t44.5 106.5v41l3 32h-2q-49 -82 -152 -82t-164.5 73t-61.5 185t59 183t162 71q51 0 94 -19t66 -58h3q-3 6 -3 15v50h93v-485q0 -60 -21.5 -106t-58.5 -72.5t-81 -39.5t-94 -13q-89 0 -173 42zM143 267q0 -80 39.5 -128.5t107.5 -48.5
q59 0 96.5 41t37.5 133q0 170 -143 170q-65 0 -101.5 -44.5t-36.5 -122.5zM246 609v98h86v-98h-86z" />
    <glyph glyph-name="Gcommaaccent" unicode="&#x122;" horiz-adv-x="762" 
d="M351 -59h85q7 -27 7 -51q0 -41 -25 -94h-74q19 54 19 84t-12 61zM50 354q0 154 103 259t257 105q155 0 257 -86l-50 -73q-36 30 -91.5 49.5t-108.5 19.5q-120 0 -192.5 -78t-72.5 -194q0 -121 74 -199t185 -78q115 0 200 88v102h-114v86h205v-355h-87v44l1 30h-2
q-37 -39 -95 -62.5t-122 -23.5q-145 0 -246 103.5t-101 262.5z" />
    <glyph glyph-name="gcommaaccent" unicode="&#x123;" horiz-adv-x="594" 
d="M333 563h-84q-7 27 -7 50q0 40 25 93h73q-19 -54 -19 -83t12 -60zM123 -92q68 -34 139 -34t115.5 34.5t44.5 106.5v41l3 32h-2q-49 -82 -152 -82t-164.5 73t-61.5 185t59 183t162 71q51 0 94 -19t66 -58h3q-3 6 -3 15v50h93v-485q0 -60 -21.5 -106t-58.5 -72.5t-81 -39.5
t-94 -13q-89 0 -173 42zM143 267q0 -80 39.5 -128.5t107.5 -48.5q59 0 96.5 41t37.5 133q0 170 -143 170q-65 0 -101.5 -44.5t-36.5 -122.5z" />
    <glyph glyph-name="Hcircumflex" unicode="&#x124;" horiz-adv-x="750" 
d="M236 755l88 127h100l89 -127h-85l-53 80h-2l-52 -80h-85zM93 0v706h99v-310h367v310h98v-706h-98v310h-367v-310h-99z" />
    <glyph glyph-name="hcircumflex" unicode="&#x125;" horiz-adv-x="603" 
d="M-13 755l88 127h100l89 -127h-85l-53 80h-2l-52 -80h-85zM75 0v706h97v-262l-4 -42h2q21 44 71 80t119 36q173 0 173 -194v-324h-97v302q0 61 -19.5 94t-75.5 33q-73 0 -121 -53.5t-48 -135.5v-240h-97z" />
    <glyph glyph-name="Hbar" unicode="&#x126;" horiz-adv-x="759" 
d="M100 0v514h-66v67h66v125h100v-125h359v125h100v-125h65v-67h-65v-514h-100v310h-359v-310h-100zM200 396h359v118h-359v-118z" />
    <glyph glyph-name="hbar" unicode="&#x127;" horiz-adv-x="603" 
d="M75 0v563h-72v63h72v80h97v-80h133v-63h-133v-116l-2 -42h2q20 43 69.5 78t118.5 35q173 0 173 -194v-324h-97v302q0 61 -19.5 94t-75.5 33q-75 0 -122 -54.5t-47 -131.5v-243h-97z" />
    <glyph glyph-name="Itilde" unicode="&#x128;" horiz-adv-x="286" 
d="M93 0v706h99v-706h-99zM-24 756q0 127 102 127q29 0 51 -17t40 -34t35 -17q20 0 29.5 19.5t9.5 45.5h70q0 -127 -102 -127q-29 0 -51 17t-40 34t-35 17q-39 0 -39 -65h-70z" />
    <glyph glyph-name="itilde" unicode="&#x129;" horiz-adv-x="246" 
d="M75 0v506h97v-506h-97zM-43 581q0 127 102 127q29 0 51 -17t40 -34t35 -17q20 0 29.5 19.5t9.5 45.5h70q0 -127 -102 -127q-29 0 -51 17t-40 34t-35 17q-39 0 -39 -65h-70z" />
    <glyph glyph-name="Imacron" unicode="&#x12a;" horiz-adv-x="286" 
d="M93 0v706h99v-706h-99zM18 784v71h254v-71h-254z" />
    <glyph glyph-name="imacron" unicode="&#x12b;" horiz-adv-x="246" 
d="M75 0v506h97v-506h-97zM-2 609v71h254v-71h-254z" />
    <glyph glyph-name="Ibreve" unicode="&#x12c;" horiz-adv-x="286" 
d="M93 0v706h99v-706h-99zM145 751q-55 0 -93.5 31t-38.5 86v14h72v-13q0 -30 17.5 -45t42.5 -15q24 0 41.5 15.5t17.5 45.5v12h72v-14q0 -55 -38.5 -86t-92.5 -31z" />
    <glyph glyph-name="ibreve" unicode="&#x12d;" horiz-adv-x="246" 
d="M75 0v506h97v-506h-97zM125 576q-55 0 -93.5 31t-38.5 86v14h72v-13q0 -30 17.5 -45t42.5 -15q24 0 41.5 15.5t17.5 45.5v12h72v-14q0 -55 -38.5 -86t-92.5 -31z" />
    <glyph glyph-name="Iogonek" unicode="&#x12e;" horiz-adv-x="286" 
d="M93 0v706h99v-706q-64 -51 -64 -89q0 -17 14 -27.5t28 -13.5l13 -2l-23 -75q-5 0 -12.5 1.5t-27.5 7.5t-35.5 15.5t-28 28t-12.5 42.5q0 58 68 112h-19z" />
    <glyph glyph-name="iogonek" unicode="&#x12f;" horiz-adv-x="247" 
d="M75 0v506h97v-506q-64 -51 -64 -89q0 -17 14 -27.5t28 -13.5l13 -2l-22 -75q-5 0 -13 1.5t-28 7.5t-35.5 15.5t-28 28t-12.5 42.5q0 57 69 112h-18zM73 608v98h100v-98h-100z" />
    <glyph glyph-name="Idotaccent" unicode="&#x130;" horiz-adv-x="286" 
d="M93 0v706h99v-706h-99zM102 784v98h86v-98h-86z" />
    <glyph glyph-name="dotlessi" unicode="&#x131;" horiz-adv-x="246" 
d="M75 0v506h97v-506h-97z" />
    <glyph glyph-name="IJ" unicode="&#x132;" horiz-adv-x="608" 
d="M284 -4v90q25 0 46.5 6t43.5 21.5t35 47.5t13 79v466h100v-467q0 -243 -238 -243zM93 0v706h99v-706h-99z" />
    <glyph glyph-name="ij" unicode="&#x133;" horiz-adv-x="493" 
d="M73 608v98h100v-98h-100zM75 0v506h97v-506h-97zM319 608v98h100v-98h-100zM321 -11v517h97v-523q0 -48 -14.5 -84t-35 -55.5t-49 -31.5t-50.5 -15t-45 -3q-10 0 -34 2v83q10 -2 22 -2q18 0 34 4t34.5 14.5t29.5 34.5t11 59z" />
    <glyph glyph-name="Jcircumflex" unicode="&#x134;" horiz-adv-x="533" 
d="M167 755l88 127h100l89 -127h-85l-53 80h-2l-52 -80h-85zM28 203v35h98v-30q0 -56 27.5 -92.5t83.5 -36.5q48 0 79.5 30.5t31.5 94.5v416h-178v86h276v-503q0 -107 -61.5 -161t-147.5 -54t-147.5 54.5t-61.5 160.5z" />
    <glyph glyph-name="jcircumflex" unicode="&#x135;" horiz-adv-x="246" 
d="M-14 579l88 127h94l88 -127h-81l-53 81h-2l-52 -81h-82zM75 -11v517h97v-523q0 -48 -14.5 -84t-35 -55.5t-49 -31.5t-50.5 -15t-45 -3q-22 0 -34 2v83q14 -2 22 -2q18 0 34 4t34.5 14.5t29.5 34.5t11 59z" />
    <glyph glyph-name="Kcommaaccent" unicode="&#x136;" horiz-adv-x="614" 
d="M272 -59h85q7 -27 7 -51q0 -41 -25 -94h-74q19 54 19 84t-12 61zM93 0v706h99v-297h105l179 297h109l-206 -335v-2l219 -369h-113l-188 323h-105v-323h-99z" />
    <glyph glyph-name="kcommaaccent" unicode="&#x137;" horiz-adv-x="522" 
d="M227 -59h85q7 -27 7 -51q0 -41 -25 -94h-74q19 54 19 84t-12 61zM75 0v706h97v-386h72l137 186h110l-168 -223v-2l187 -281h-113l-151 237h-74v-237h-97z" />
    <glyph glyph-name="kgreenlandic" unicode="&#x138;" horiz-adv-x="520" 
d="M75 0v506h97v-199h70l145 199h112l-176 -235v-2l179 -269h-116l-142 225h-72v-225h-97z" />
    <glyph glyph-name="Lacute" unicode="&#x139;" horiz-adv-x="526" 
d="M101 755l72 127h105l-96 -127h-81zM93 0v706h99v-620h317v-86h-416z" />
    <glyph glyph-name="lacute" unicode="&#x13a;" horiz-adv-x="267" 
d="M82 755l72 127h105l-96 -127h-81zM75 139v567h96v-551q0 -41 14.5 -56.5t40.5 -15.5q11 0 17 1v-86q-21 -3 -32 -3q-136 0 -136 144z" />
    <glyph glyph-name="Lcommaaccent" unicode="&#x13b;" horiz-adv-x="526" 
d="M262 -59h85q7 -27 7 -51q0 -41 -25 -94h-74q19 54 19 84t-12 61zM93 0v706h99v-620h317v-86h-416z" />
    <glyph glyph-name="lcommaaccent" unicode="&#x13c;" horiz-adv-x="267" 
d="M115 -59h85q7 -27 7 -51q0 -41 -25 -94h-74q19 54 19 84t-12 61zM75 139v567h96v-551q0 -41 14.5 -56.5t40.5 -15.5q11 0 17 1v-86q-21 -3 -32 -3q-136 0 -136 144z" />
    <glyph glyph-name="Lcaron" unicode="&#x13d;" horiz-adv-x="527" 
d="M276 705h85q7 -27 7 -51q0 -41 -25 -94h-74q19 54 19 84t-12 61zM93 0v706h99v-620h317v-86h-416z" />
    <glyph glyph-name="lcaron" unicode="&#x13e;" horiz-adv-x="275" 
d="M229 705h85q7 -27 7 -51q0 -41 -25 -94h-74q19 54 19 84t-12 61zM75 139v567h96v-551q0 -41 14.5 -56.5t40.5 -15.5q11 0 17 1v-86q-21 -3 -32 -3q-136 0 -136 144z" />
    <glyph glyph-name="Ldot" unicode="&#x13f;" horiz-adv-x="527" 
d="M93 0v706h99v-620h317v-86h-416zM308 326v105h101v-105h-101z" />
    <glyph glyph-name="ldot" unicode="&#x140;" horiz-adv-x="343" 
d="M75 139v567h96v-551q0 -41 14.5 -56.5t40.5 -15.5q11 0 17 1v-86q-21 -3 -32 -3q-136 0 -136 144zM243 326v105h101v-105h-101z" />
    <glyph glyph-name="Lslash" unicode="&#x141;" horiz-adv-x="531" 
d="M99 0v301l-60 -34v97l60 34v308h98v-252l109 63v-97l-109 -63v-271h316v-86h-414z" />
    <glyph glyph-name="lslash" unicode="&#x142;" horiz-adv-x="286" 
d="M16 275v97l73 42v292h97v-236l82 47v-97l-82 -48v-217q0 -72 54 -72l18 1v-86q-15 -3 -33 -3q-136 0 -136 144v178z" />
    <glyph glyph-name="Nacute" unicode="&#x143;" horiz-adv-x="752" 
d="M332 755l72 127h105l-96 -127h-81zM93 0v706h98l315 -458l58 -103h2q-6 63 -6 103v458h98v-706h-97l-315 458l-58 103h-2q6 -63 6 -103v-458h-99z" />
    <glyph glyph-name="nacute" unicode="&#x144;" horiz-adv-x="603" 
d="M268 580l72 127h105l-96 -127h-81zM75 0v506h94v-69l-3 -38h2q19 43 68.5 81t123.5 38q173 0 173 -194v-324h-97v302q0 61 -19.5 94t-75.5 33q-73 0 -121 -53.5t-48 -132.5v-243h-97z" />
    <glyph glyph-name="Ncommaaccent" unicode="&#x145;" horiz-adv-x="752" 
d="M330 -59h85q7 -27 7 -51q0 -41 -25 -94h-74q19 54 19 84t-12 61zM93 0v706h98l315 -458l58 -103h2q-6 63 -6 103v458h98v-706h-97l-315 458l-58 103h-2q6 -63 6 -103v-458h-99z" />
    <glyph glyph-name="ncommaaccent" unicode="&#x146;" horiz-adv-x="603" 
d="M257 -59h85q7 -27 7 -51q0 -41 -25 -94h-74q19 54 19 84t-12 61zM75 0v506h94v-69l-3 -38h2q19 43 68.5 81t123.5 38q173 0 173 -194v-324h-97v302q0 61 -19.5 94t-75.5 33q-73 0 -121 -53.5t-48 -132.5v-243h-97z" />
    <glyph glyph-name="Ncaron" unicode="&#x147;" horiz-adv-x="752" 
d="M325 755l-88 127h85l52 -81h2l53 81h85l-89 -127h-100zM93 0v706h98l315 -458l58 -103h2q-6 63 -6 103v458h98v-706h-97l-315 458l-58 103h-2q6 -63 6 -103v-458h-99z" />
    <glyph glyph-name="ncaron" unicode="&#x148;" horiz-adv-x="603" 
d="M261 580l-88 127h85l52 -81h2l53 81h85l-89 -127h-100zM75 0v506h94v-69l-3 -38h2q19 43 68.5 81t123.5 38q173 0 173 -194v-324h-97v302q0 61 -19.5 94t-75.5 33q-73 0 -121 -53.5t-48 -132.5v-243h-97z" />
    <glyph glyph-name="napostrophe" unicode="&#x149;" horiz-adv-x="603" 
d="M3 705h85q7 -27 7 -51q0 -41 -25 -94h-74q19 54 19 84t-12 61zM75 0v506h94v-69l-3 -38h2q19 43 68.5 81t123.5 38q173 0 173 -194v-324h-97v302q0 61 -19.5 94t-75.5 33q-73 0 -121 -53.5t-48 -132.5v-243h-97z" />
    <glyph glyph-name="Eng" unicode="&#x14a;" horiz-adv-x="751" 
d="M93 0v706h98l315 -458l58 -103h2q-6 63 -6 103v458h98v-679q0 -65 -20.5 -112.5t-55.5 -72.5t-73.5 -36t-82.5 -11v91q47 0 87 30t44 91l-311 451l-58 103h-2q6 -63 6 -103v-458h-99z" />
    <glyph glyph-name="eng" unicode="&#x14b;" horiz-adv-x="603" 
d="M75 0v506h94v-75l-2 -29h2q20 43 68.5 79.5t122.5 36.5q173 0 173 -194v-344q0 -48 -14.5 -84t-35 -55.5t-49 -31.5t-50.5 -15t-45 -3l-34 2v83q9 -1 22 -1q18 0 34 4t34.5 14t29.5 34t11 59v316q0 61 -19.5 94t-75.5 33q-75 0 -122 -54.5t-47 -131.5v-243h-97z" />
    <glyph glyph-name="Omacron" unicode="&#x14c;" horiz-adv-x="823" 
d="M285 784v71h254v-71h-254zM49 358q0 153 103 256.5t260 103.5q156 0 259 -103.5t103 -256.5q0 -157 -103 -263.5t-259 -106.5t-259.5 106.5t-103.5 263.5zM151 358q0 -119 74 -199t187 -80q112 0 186 80t74 199q0 115 -74 192.5t-186 77.5q-113 0 -187 -77.5t-74 -192.5z
" />
    <glyph glyph-name="omacron" unicode="&#x14d;" horiz-adv-x="629" 
d="M188 609v71h254v-71h-254zM42 254q0 113 79 188.5t193 75.5q115 0 194 -75t79 -189t-79 -190t-193 -76t-193.5 76t-79.5 190zM141 254q0 -79 50.5 -130.5t123.5 -51.5q72 0 123 52t51 130t-51 129t-123 51q-73 0 -123.5 -51t-50.5 -129z" />
    <glyph glyph-name="Obreve" unicode="&#x14e;" horiz-adv-x="823" 
d="M49 358q0 153 103 256.5t260 103.5q156 0 259 -103.5t103 -256.5q0 -157 -103 -263.5t-259 -106.5t-259.5 106.5t-103.5 263.5zM151 358q0 -119 74 -199t187 -80q112 0 186 80t74 199q0 115 -74 192.5t-186 77.5q-113 0 -187 -77.5t-74 -192.5zM411 751q-55 0 -93.5 31
t-38.5 86v14h72v-13q0 -30 17.5 -45t42.5 -15q24 0 41.5 15.5t17.5 45.5v12h72v-14q0 -55 -38.5 -86t-92.5 -31z" />
    <glyph glyph-name="obreve" unicode="&#x14f;" horiz-adv-x="629" 
d="M42 254q0 113 79 188.5t193 75.5q115 0 194 -75t79 -189t-79 -190t-193 -76t-193.5 76t-79.5 190zM141 254q0 -79 50.5 -130.5t123.5 -51.5q72 0 123 52t51 130t-51 129t-123 51q-73 0 -123.5 -51t-50.5 -129zM314 576q-55 0 -93.5 31t-38.5 86v14h72v-13q0 -30 17.5 -45
t42.5 -15q24 0 41.5 15.5t17.5 45.5v12h72v-14q0 -55 -38.5 -86t-92.5 -31z" />
    <glyph glyph-name="Ohungarumlaut" unicode="&#x150;" horiz-adv-x="823" 
d="M433 755l73 127h101l-96 -127h-78zM279 755l68 127h88l-71 -127h-85zM49 358q0 153 103 256.5t260 103.5q156 0 259 -103.5t103 -256.5q0 -157 -103 -263.5t-259 -106.5t-259.5 106.5t-103.5 263.5zM151 358q0 -119 74 -199t187 -80q112 0 186 80t74 199q0 115 -74 192.5
t-186 77.5q-113 0 -187 -77.5t-74 -192.5z" />
    <glyph glyph-name="ohungarumlaut" unicode="&#x151;" horiz-adv-x="629" 
d="M336 580l73 127h101l-96 -127h-78zM182 580l68 127h88l-71 -127h-85zM42 254q0 113 79 188.5t193 75.5q115 0 194 -75t79 -189t-79 -190t-193 -76t-193.5 76t-79.5 190zM141 254q0 -79 50.5 -130.5t123.5 -51.5q72 0 123 52t51 130t-51 129t-123 51q-73 0 -123.5 -51
t-50.5 -129z" />
    <glyph glyph-name="OE" unicode="&#x152;" horiz-adv-x="956" 
d="M50 354q0 153 104.5 257t260.5 104q26 0 66.5 -4.5t56.5 -4.5h358v-86h-312v-221h254v-86h-254v-227h329v-86h-375q-15 0 -56 -4.5t-67 -4.5q-156 0 -260.5 104.5t-104.5 258.5zM152 354q0 -118 73.5 -197.5t189.5 -79.5q18 0 35.5 2t26.5 4l9 2v536q-31 8 -71 8
q-115 0 -189 -79t-74 -196z" />
    <glyph glyph-name="oe" unicode="&#x153;" horiz-adv-x="1003" 
d="M42 252q0 117 78.5 191.5t191.5 74.5q147 0 219 -120h2q63 120 208 120q104 0 161.5 -67.5t57.5 -169.5l-3 -41h-369q6 -79 55.5 -123.5t118.5 -44.5q83 0 150 59l40 -71q-36 -33 -89 -52.5t-107 -19.5q-153 0 -221 123h-2q-71 -123 -221 -123q-113 0 -191.5 73.5
t-78.5 190.5zM591 310h270q-2 62 -36 96.5t-85 34.5q-57 0 -97.5 -35t-51.5 -96zM141 252q0 -80 50.5 -130t122.5 -50q73 0 123.5 50.5t50.5 132.5q0 79 -51 129t-123 50t-122.5 -50.5t-50.5 -131.5z" />
    <glyph glyph-name="Racute" unicode="&#x154;" horiz-adv-x="628" 
d="M262 755l72 127h105l-96 -127h-81zM93 0v706h224q89 0 131 -19q52 -23 82 -71t30 -114q0 -68 -34.5 -121.5t-91.5 -72.5v-2q8 -10 20 -32l150 -274h-112l-149 281h-151v-281h-99zM192 367h142q58 0 92 35.5t34 94.5q0 83 -66 111q-27 12 -85 12h-117v-253z" />
    <glyph glyph-name="racute" unicode="&#x155;" horiz-adv-x="376" 
d="M180 580l72 127h105l-96 -127h-81zM75 0v506h94v-91l-3 -37h2q19 58 62 96t99 38q10 0 26 -2v-96q-8 2 -28 2q-76 0 -115.5 -61.5t-39.5 -144.5v-210h-97z" />
    <glyph glyph-name="Rcommaaccent" unicode="&#x156;" horiz-adv-x="628" 
d="M280 -59h85q7 -27 7 -51q0 -41 -25 -94h-74q19 54 19 84t-12 61zM93 0v706h224q89 0 131 -19q52 -23 82 -71t30 -114q0 -68 -34.5 -121.5t-91.5 -72.5v-2q8 -10 20 -32l150 -274h-112l-149 281h-151v-281h-99zM192 367h142q58 0 92 35.5t34 94.5q0 83 -66 111
q-27 12 -85 12h-117v-253z" />
    <glyph glyph-name="rcommaaccent" unicode="&#x157;" horiz-adv-x="376" 
d="M81 -59h85q7 -27 7 -51q0 -41 -25 -94h-74q19 54 19 84t-12 61zM75 0v506h94v-91l-3 -37h2q19 58 62 96t99 38q10 0 26 -2v-96q-8 2 -28 2q-76 0 -115.5 -61.5t-39.5 -144.5v-210h-97z" />
    <glyph glyph-name="Rcaron" unicode="&#x158;" horiz-adv-x="628" 
d="M254 755l-88 127h85l52 -81h2l53 81h85l-89 -127h-100zM93 0v706h224q89 0 131 -19q52 -23 82 -71t30 -114q0 -68 -34.5 -121.5t-91.5 -72.5v-2q8 -10 20 -32l150 -274h-112l-149 281h-151v-281h-99zM192 367h142q58 0 92 35.5t34 94.5q0 83 -66 111q-27 12 -85 12h-117
v-253z" />
    <glyph glyph-name="rcaron" unicode="&#x159;" horiz-adv-x="376" 
d="M174 580l-88 127h85l52 -81h2l53 81h85l-89 -127h-100zM75 0v506h94v-91l-3 -37h2q19 58 62 96t99 38q10 0 26 -2v-96q-8 2 -28 2q-76 0 -115.5 -61.5t-39.5 -144.5v-210h-97z" />
    <glyph glyph-name="Sacute" unicode="&#x15a;" horiz-adv-x="545" 
d="M230 755l72 127h105l-96 -127h-81zM41 81l56 75q34 -33 82 -54.5t96 -21.5q56 0 90 27.5t34 73.5q0 43 -35 73.5t-85.5 51.5t-100.5 45t-85 67t-35 104q0 88 65.5 142t165.5 54q121 0 197 -72l-45 -81q-30 28 -72.5 45t-83.5 17q-55 0 -91 -27.5t-36 -72.5q0 -35 25 -62
t63 -42.5t82 -36t82 -42.5t63 -62t25 -93q0 -86 -60 -143.5t-165 -57.5q-137 0 -232 93z" />
    <glyph glyph-name="sacute" unicode="&#x15b;" horiz-adv-x="447" 
d="M179 580l72 127h105l-96 -127h-81zM32 62l46 66q61 -59 149 -59q39 0 62.5 17.5t23.5 48.5q0 26 -27 45t-65 33t-76 31t-65 49.5t-27 78.5q0 69 52 107.5t130 38.5q102 0 164 -56l-39 -70q-22 21 -57.5 33t-70.5 12q-39 0 -62.5 -16t-23.5 -47q0 -27 27 -46t65 -32.5
t76.5 -30.5t65.5 -49.5t27 -78.5q0 -65 -51 -107t-131 -42q-120 0 -193 74z" />
    <glyph glyph-name="Scircumflex" unicode="&#x15c;" horiz-adv-x="545" 
d="M136 755l88 127h100l89 -127h-85l-53 80h-2l-52 -80h-85zM41 81l56 75q34 -33 82 -54.5t96 -21.5q56 0 90 27.5t34 73.5q0 43 -35 73.5t-85.5 51.5t-100.5 45t-85 67t-35 104q0 88 65.5 142t165.5 54q121 0 197 -72l-45 -81q-30 28 -72.5 45t-83.5 17q-55 0 -91 -27.5
t-36 -72.5q0 -35 25 -62t63 -42.5t82 -36t82 -42.5t63 -62t25 -93q0 -86 -60 -143.5t-165 -57.5q-137 0 -232 93z" />
    <glyph glyph-name="scircumflex" unicode="&#x15d;" horiz-adv-x="447" 
d="M87 580l88 127h100l89 -127h-85l-53 80h-2l-52 -80h-85zM32 62l46 66q61 -59 149 -59q39 0 62.5 17.5t23.5 48.5q0 26 -27 45t-65 33t-76 31t-65 49.5t-27 78.5q0 69 52 107.5t130 38.5q102 0 164 -56l-39 -70q-22 21 -57.5 33t-70.5 12q-39 0 -62.5 -16t-23.5 -47
q0 -27 27 -46t65 -32.5t76.5 -30.5t65.5 -49.5t27 -78.5q0 -65 -51 -107t-131 -42q-120 0 -193 74z" />
    <glyph glyph-name="Scedilla" unicode="&#x15e;" horiz-adv-x="546" 
d="M226 -88l20 77q-123 10 -205 92l56 75q34 -33 82 -54.5t96 -21.5q56 0 90 27.5t34 73.5q0 43 -35 73.5t-85.5 51.5t-100.5 45t-85 67t-35 104q0 88 65.5 142t165.5 54q121 0 197 -72l-45 -81q-30 28 -72.5 45t-83.5 17q-55 0 -91 -27.5t-36 -72.5q0 -35 25 -62t63 -42.5
t82 -36t82 -42.5t63 -62t25 -93q0 -80 -52.5 -136t-145.5 -64l-8 -39q32 -4 52 -23t20 -50q0 -43 -29.5 -63.5t-72.5 -20.5q-28 0 -55 6v59q17 -7 42 -7q48 0 48 31t-53 31z" />
    <glyph glyph-name="scedilla" unicode="&#x15f;" horiz-adv-x="449" 
d="M174 -88l20 78q-101 10 -161 72l46 66q61 -59 149 -59q39 0 62.5 17.5t23.5 48.5q0 26 -27 45t-65 33t-76 31t-65 49.5t-27 78.5q0 69 52 107.5t130 38.5q102 0 164 -56l-39 -70q-22 21 -57.5 33t-70.5 12q-39 0 -62.5 -16t-23.5 -47q0 -27 27 -46t65.5 -32.5t76.5 -30.5
t65 -49.5t27 -78.5q0 -60 -44 -101t-116 -47l-8 -39q32 -4 52 -23t20 -50q0 -43 -29.5 -63.5t-72.5 -20.5q-28 0 -55 6v59q17 -7 42 -7q48 0 48 31t-53 31z" />
    <glyph glyph-name="Scaron" unicode="&#x160;" horiz-adv-x="545" 
d="M224 755l-88 127h85l52 -81h2l53 81h85l-89 -127h-100zM41 81l56 75q34 -33 82 -54.5t96 -21.5q56 0 90 27.5t34 73.5q0 43 -35 73.5t-85.5 51.5t-100.5 45t-85 67t-35 104q0 88 65.5 142t165.5 54q121 0 197 -72l-45 -81q-30 28 -72.5 45t-83.5 17q-55 0 -91 -27.5
t-36 -72.5q0 -35 25 -62t63 -42.5t82 -36t82 -42.5t63 -62t25 -93q0 -86 -60 -143.5t-165 -57.5q-137 0 -232 93z" />
    <glyph glyph-name="scaron" unicode="&#x161;" horiz-adv-x="447" 
d="M175 580l-88 127h85l52 -81h2l53 81h85l-89 -127h-100zM32 62l46 66q61 -59 149 -59q39 0 62.5 17.5t23.5 48.5q0 26 -27 45t-65 33t-76 31t-65 49.5t-27 78.5q0 69 52 107.5t130 38.5q102 0 164 -56l-39 -70q-22 21 -57.5 33t-70.5 12q-39 0 -62.5 -16t-23.5 -47
q0 -27 27 -46t65 -32.5t76.5 -30.5t65.5 -49.5t27 -78.5q0 -65 -51 -107t-131 -42q-120 0 -193 74z" />
    <glyph glyph-name="Tcommaaccent" unicode="&#x162;" horiz-adv-x="615" 
d="M258 0v620h-243v86h584v-86h-243v-620h-24l-11 -50q32 -4 52 -23t20 -50q0 -43 -29.5 -63.5t-72.5 -20.5q-28 0 -55 6v59q18 -7 42 -7q48 0 48 31t-53 31l-18 -1l23 88h-20z" />
    <glyph glyph-name="tcommaaccent" unicode="&#x163;" horiz-adv-x="349" 
d="M154 -88l28 107q-86 44 -86 166v237h-66v79h68v144h95v-144h122v-79h-122v-226q0 -29 8 -50.5t19.5 -33.5t27 -19t28 -9t25.5 -2t23 2v-86q-24 -3 -34 -3q-34 0 -59 6l-11 -51q32 -4 52 -23t20 -50q0 -43 -29.5 -63.5t-72.5 -20.5q-28 0 -55 6v59q17 -7 42 -7q48 0 48 31
t-53 31z" />
    <glyph glyph-name="Tcaron" unicode="&#x164;" horiz-adv-x="615" 
d="M256 755l-88 127h85l52 -81h2l53 81h85l-89 -127h-100zM258 0v620h-243v86h584v-86h-243v-620h-98z" />
    <glyph glyph-name="tcaron" unicode="&#x165;" horiz-adv-x="349" 
d="M252 706h85q7 -27 7 -50q0 -40 -25 -92h-74q19 54 19 82q0 29 -12 60zM96 185v237h-66v79h68v144h95v-144h122v-79h-122v-226q0 -29 8 -50.5t19.5 -33.5t27 -19t28 -9t25.5 -2t23 2v-86q-24 -3 -34 -3q-23 0 -45.5 3.5t-50.5 15t-48.5 31t-35 56t-14.5 84.5z" />
    <glyph glyph-name="Tbar" unicode="&#x166;" horiz-adv-x="625" 
d="M263 0v310h-156v76h156v234h-243v86h584v-86h-243v-234h161v-76h-161v-310h-98z" />
    <glyph glyph-name="tbar" unicode="&#x167;" horiz-adv-x="353" 
d="M28 259v68h71v95h-66v79h68v144h94v-144h122v-79h-122v-95h117v-68h-117v-67q0 -34 11 -57.5t29.5 -34t34.5 -14.5t33 -4l23 2v-86q-14 -3 -34 -3q-23 0 -45 3.5t-50.5 15t-49 31t-34.5 56t-14 84.5v74h-71z" />
    <glyph glyph-name="Utilde" unicode="&#x168;" horiz-adv-x="726" 
d="M85 250v456h99v-455q0 -81 48.5 -126.5t130.5 -45.5t130 45.5t48 127.5v454h99v-456q0 -118 -76 -190t-200 -72q-125 0 -202 72t-77 190zM194 756q0 127 102 127q29 0 51 -17t40 -34t35 -17q20 0 29.5 19.5t9.5 45.5h70q0 -127 -102 -127q-29 0 -51 17t-40 34t-35 17
q-39 0 -39 -65h-70z" />
    <glyph glyph-name="utilde" unicode="&#x169;" horiz-adv-x="597" 
d="M69 182v324h97v-302q0 -60 20 -93t75 -33q75 0 120 56t45 135v237h96v-506h-94v70l4 37h-2q-20 -45 -70 -82t-118 -37q-173 0 -173 194zM127 581q0 127 102 127q29 0 51 -17t40 -34t35 -17q20 0 29.5 19.5t9.5 45.5h70q0 -127 -102 -127q-29 0 -51 17t-40 34t-35 17
q-39 0 -39 -65h-70z" />
    <glyph glyph-name="Umacron" unicode="&#x16a;" horiz-adv-x="726" 
d="M85 250v456h99v-455q0 -81 48.5 -126.5t130.5 -45.5t130 45.5t48 127.5v454h99v-456q0 -118 -76 -190t-200 -72q-125 0 -202 72t-77 190zM236 784v71h254v-71h-254z" />
    <glyph glyph-name="umacron" unicode="&#x16b;" horiz-adv-x="597" 
d="M69 182v324h97v-302q0 -60 20 -93t75 -33q75 0 120 56t45 135v237h96v-506h-94v70l4 37h-2q-20 -45 -70 -82t-118 -37q-173 0 -173 194zM169 609v71h254v-71h-254z" />
    <glyph glyph-name="Ubreve" unicode="&#x16c;" horiz-adv-x="726" 
d="M85 250v456h99v-455q0 -81 48.5 -126.5t130.5 -45.5t130 45.5t48 127.5v454h99v-456q0 -118 -76 -190t-200 -72q-125 0 -202 72t-77 190zM362 751q-55 0 -93.5 31t-38.5 86v14h72v-13q0 -30 17.5 -45t42.5 -15q24 0 41.5 15.5t17.5 45.5v12h72v-14q0 -55 -38.5 -86
t-92.5 -31z" />
    <glyph glyph-name="ubreve" unicode="&#x16d;" horiz-adv-x="597" 
d="M69 182v324h97v-302q0 -60 20 -93t75 -33q75 0 120 56t45 135v237h96v-506h-94v70l4 37h-2q-20 -45 -70 -82t-118 -37q-173 0 -173 194zM296 576q-55 0 -93.5 31t-38.5 86v14h72v-13q0 -30 17.5 -45t42.5 -15q24 0 41.5 15.5t17.5 45.5v12h72v-14q0 -55 -38.5 -86
t-92.5 -31z" />
    <glyph glyph-name="Uring" unicode="&#x16e;" horiz-adv-x="726" 
d="M362 743q-35 0 -60 20.5t-25 53.5q0 34 25 54.5t60 20.5t59.5 -20.5t24.5 -54.5q0 -33 -25 -53.5t-59 -20.5zM362 784q14 0 23.5 9.5t9.5 23.5q0 16 -9.5 25.5t-23.5 9.5q-15 0 -24 -9.5t-9 -25.5q0 -14 9 -23.5t24 -9.5zM85 250v456h99v-455q0 -81 48.5 -126.5
t130.5 -45.5t130 45.5t48 127.5v454h99v-456q0 -118 -76 -190t-200 -72q-125 0 -202 72t-77 190z" />
    <glyph glyph-name="uring" unicode="&#x16f;" horiz-adv-x="597" 
d="M296 568q-35 0 -60 20.5t-25 53.5q0 34 25 54.5t60 20.5t59.5 -20.5t24.5 -54.5q0 -33 -25 -53.5t-59 -20.5zM296 609q14 0 23.5 9.5t9.5 23.5q0 16 -9.5 25.5t-23.5 9.5q-15 0 -24 -9.5t-9 -25.5q0 -14 9 -23.5t24 -9.5zM69 182v324h97v-302q0 -60 20 -93t75 -33
q75 0 120 56t45 135v237h96v-506h-94v70l4 37h-2q-20 -45 -70 -82t-118 -37q-173 0 -173 194z" />
    <glyph glyph-name="Uhungarumlaut" unicode="&#x170;" horiz-adv-x="726" 
d="M85 250v456h99v-455q0 -81 48.5 -126.5t130.5 -45.5t130 45.5t48 127.5v454h99v-456q0 -118 -76 -190t-200 -72q-125 0 -202 72t-77 190zM384 755l73 127h101l-96 -127h-78zM230 755l68 127h88l-71 -127h-85z" />
    <glyph glyph-name="uhungarumlaut" unicode="&#x171;" horiz-adv-x="597" 
d="M69 182v324h97v-302q0 -60 20 -93t75 -33q75 0 120 56t45 135v237h96v-506h-94v70l4 37h-2q-20 -45 -70 -82t-118 -37q-173 0 -173 194zM318 580l73 127h101l-96 -127h-78zM164 580l68 127h88l-71 -127h-85z" />
    <glyph glyph-name="Uogonek" unicode="&#x172;" horiz-adv-x="726" 
d="M86 250v456h98v-455q0 -81 48.5 -126.5t130.5 -45.5t130.5 46t48.5 127v454h98v-456q0 -88 -35.5 -139t-96.5 -91q-66 -47 -82.5 -67.5t-16.5 -41.5q0 -17 13.5 -27.5t27.5 -13.5l14 -2l-23 -75q-5 0 -12.5 1.5t-27.5 7.5t-35.5 15.5t-28 28t-12.5 42.5q0 56 55 101
q-13 -1 -22 -1q-114 0 -193 70t-79 192z" />
    <glyph glyph-name="uogonek" unicode="&#x173;" horiz-adv-x="597" 
d="M69 182v324h97v-302q0 -60 20 -93t75 -33q75 0 120 56t45 135v237h96v-506q-64 -51 -64 -89q0 -17 14 -27.5t28 -13.5l13 -2l-23 -75q-5 0 -12.5 1.5t-27.5 7.5t-35.5 15.5t-28 28t-12.5 42.5q0 57 69 112h-15v70l4 37h-2q-20 -45 -70 -82t-118 -37q-173 0 -173 194z" />
    <glyph glyph-name="Wcircumflex" unicode="&#x174;" horiz-adv-x="941" 
d="M336 755l88 127h100l89 -127h-85l-53 80h-2l-52 -80h-85zM209 0l-180 706h104l123 -518l14 -75h2q6 36 16 75l139 518h87l138 -518l16 -75h2q4 37 13 75l131 518h102l-186 -706h-113l-124 458l-21 99h-4q-9 -53 -22 -99l-123 -458h-114z" />
    <glyph glyph-name="wcircumflex" unicode="&#x175;" horiz-adv-x="828" 
d="M275 580l88 127h100l89 -127h-85l-53 80h-2l-52 -80h-85zM187 0l-163 506h103l105 -355l13 -54h2q6 28 14 54l109 354h90l109 -354l13 -54h2q5 28 13 54l106 355h101l-162 -506h-108l-104 325l-15 55h-2q-6 -29 -14 -55l-104 -325h-108z" />
    <glyph glyph-name="Ycircumflex" unicode="&#x176;" horiz-adv-x="592" 
d="M247 0v299l-237 407h112l130 -232l43 -89h2q21 48 43 89l130 232h112l-237 -407v-299h-98zM157 755l88 127h100l89 -127h-85l-53 80h-2l-52 -80h-85z" />
    <glyph glyph-name="ycircumflex" unicode="&#x177;" horiz-adv-x="535" 
d="M50 -105q28 -22 58 -22q61 0 92 75l25 58l-212 500h109l127 -331l19 -61h2q8 34 17 60l123 332h105l-238 -597q-22 -58 -65.5 -88.5t-98.5 -30.5q-25 0 -49 8t-36 16l-12 7zM130 580l88 127h100l89 -127h-85l-53 80h-2l-52 -80h-85z" />
    <glyph glyph-name="Ydieresis" unicode="&#x178;" horiz-adv-x="592" 
d="M247 0v299l-237 407h112l130 -232l43 -89h2q21 48 43 89l130 232h112l-237 -407v-299h-98zM337 781v101h79v-101h-79zM169 781v101h80v-101h-80z" />
    <glyph glyph-name="Zacute" unicode="&#x179;" horiz-adv-x="594" 
d="M264 755l72 127h105l-96 -127h-81zM36 0v66l339 490q12 18 25 34t20 23l6 7v2q-19 -2 -52 -2h-321v86h496v-65l-340 -491q-12 -17 -24.5 -33t-18.5 -23l-7 -8v-2q18 2 52 2h342v-86h-517z" />
    <glyph glyph-name="zacute" unicode="&#x17a;" horiz-adv-x="511" 
d="M208 580l72 127h105l-96 -127h-81zM36 0v56l256 320l41 47v2q-16 -2 -49 -2h-237v83h417v-56l-255 -320q-9 -12 -20 -23.5l-17 -17.5l-6 -6v-2q17 3 50 3h257v-84h-437z" />
    <glyph glyph-name="Zdotaccent" unicode="&#x17b;" horiz-adv-x="594" 
d="M36 0v66l339 490q12 18 25 34t20 23l6 7v2q-19 -2 -52 -2h-321v86h496v-65l-340 -491q-12 -17 -24.5 -33t-18.5 -23l-7 -8v-2q18 2 52 2h342v-86h-517zM265 784v98h86v-98h-86z" />
    <glyph glyph-name="zdotaccent" unicode="&#x17c;" horiz-adv-x="511" 
d="M36 0v56l256 320l41 47v2q-16 -2 -49 -2h-237v83h417v-56l-255 -320q-9 -12 -20 -23.5l-17 -17.5l-6 -6v-2q17 3 50 3h257v-84h-437zM209 609v98h86v-98h-86z" />
    <glyph glyph-name="Zcaron" unicode="&#x17d;" horiz-adv-x="594" 
d="M257 755l-88 127h85l52 -81h2l53 81h85l-89 -127h-100zM36 0v66l339 490q12 18 25 34t20 23l6 7v2q-19 -2 -52 -2h-321v86h496v-65l-340 -491q-12 -17 -24.5 -33t-18.5 -23l-7 -8v-2q18 2 52 2h342v-86h-517z" />
    <glyph glyph-name="zcaron" unicode="&#x17e;" horiz-adv-x="511" 
d="M202 580l-88 127h85l52 -81h2l53 81h85l-89 -127h-100zM36 0v56l256 320l41 47v2q-16 -2 -49 -2h-237v83h417v-56l-255 -320q-9 -12 -20 -23.5l-17 -17.5l-6 -6v-2q17 3 50 3h257v-84h-437z" />
    <glyph glyph-name="longs" unicode="&#x17f;" horiz-adv-x="291" 
d="M99 0v422h-63v79h63v22q0 48 14 83.5t34.5 55t48 31t49.5 15t45 3.5l37 -3v-84q-10 2 -25 2q-13 0 -25.5 -2t-28 -8.5t-26.5 -17.5t-18.5 -31t-7.5 -47v-520h-97z" />
    <glyph glyph-name="florin" unicode="&#x192;" horiz-adv-x="577" 
d="M33 -21q38 -6 66 -6q17 0 32.5 4t34 14.5t31 34.5t15.5 58l24 266h-82v78h88l10 102q4 48 21.5 83.5t39 55t50.5 31t51.5 15t45.5 3.5l83 -7v-84q-49 7 -79 7q-17 0 -33 -4t-34.5 -14.5t-31.5 -34t-16 -58.5l-9 -95h117v-78h-124l-24 -274q-5 -59 -28.5 -99t-57.5 -57.5
t-62 -24t-58 -6.5l-70 6v84z" />
    <glyph glyph-name="Scommaaccent" unicode="&#x218;" horiz-adv-x="545" 
d="M224 -59h85q7 -27 7 -51q0 -41 -25 -94h-74q19 54 19 84t-12 61zM41 81l56 75q34 -33 82 -54.5t96 -21.5q56 0 90 27.5t34 73.5q0 43 -35 73.5t-85.5 51.5t-100.5 45t-85 67t-35 104q0 88 65.5 142t165.5 54q121 0 197 -72l-45 -81q-30 28 -72.5 45t-83.5 17
q-55 0 -91 -27.5t-36 -72.5q0 -35 25 -62t63 -42.5t82 -36t82 -42.5t63 -62t25 -93q0 -86 -60 -143.5t-165 -57.5q-137 0 -232 93z" />
    <glyph glyph-name="scommaaccent" unicode="&#x219;" horiz-adv-x="447" 
d="M177 -59h85q7 -27 7 -51q0 -41 -25 -94h-74q19 54 19 84t-12 61zM32 62l46 66q61 -59 149 -59q39 0 62.5 17.5t23.5 48.5q0 26 -27 45t-65 33t-76 31t-65 49.5t-27 78.5q0 69 52 107.5t130 38.5q102 0 164 -56l-39 -70q-22 21 -57.5 33t-70.5 12q-39 0 -62.5 -16
t-23.5 -47q0 -27 27 -46t65 -32.5t76.5 -30.5t65.5 -49.5t27 -78.5q0 -65 -51 -107t-131 -42q-120 0 -193 74z" />
    <glyph glyph-name="uni021A" unicode="&#x21a;" horiz-adv-x="615" 
d="M260 -59h85q7 -27 7 -51q0 -41 -25 -94h-74q19 54 19 84t-12 61zM258 0v620h-243v86h584v-86h-243v-620h-98z" />
    <glyph glyph-name="uni021B" unicode="&#x21b;" horiz-adv-x="349" 
d="M166 -59h85q7 -27 7 -51q0 -41 -25 -94h-74q19 54 19 84t-12 61zM96 185v237h-66v79h68v144h95v-144h122v-79h-122v-226q0 -29 8 -50.5t19.5 -33.5t27 -19t28 -9t25.5 -2t23 2v-86q-24 -3 -34 -3q-23 0 -45.5 3.5t-50.5 15t-48.5 31t-35 56t-14.5 84.5z" />
    <glyph glyph-name="circumflex" unicode="&#x2c6;" horiz-adv-x="499" 
d="M111 755l88 127h100l89 -127h-85l-53 80h-2l-52 -80h-85z" />
    <glyph glyph-name="caron" unicode="&#x2c7;" horiz-adv-x="499" 
d="M199 755l-88 127h85l52 -81h2l53 81h85l-89 -127h-100z" />
    <glyph glyph-name="breve" unicode="&#x2d8;" horiz-adv-x="499" 
d="M250 751q-55 0 -93.5 31t-38.5 86v14h72v-13q0 -30 17.5 -45t42.5 -15q24 0 41.5 15.5t17.5 45.5v12h72v-14q0 -55 -38.5 -86t-92.5 -31z" />
    <glyph glyph-name="dotaccent" unicode="&#x2d9;" horiz-adv-x="500" 
d="M207 784v98h86v-98h-86z" />
    <glyph glyph-name="ring" unicode="&#x2da;" horiz-adv-x="500" 
d="M250 743q-35 0 -60 20.5t-25 53.5q0 34 25 54.5t60 20.5t59.5 -20.5t24.5 -54.5q0 -33 -25 -53.5t-59 -20.5zM250 784q14 0 23.5 9.5t9.5 23.5q0 16 -9.5 25.5t-23.5 9.5q-15 0 -24 -9.5t-9 -25.5q0 -14 9 -23.5t24 -9.5z" />
    <glyph glyph-name="ogonek" unicode="&#x2db;" horiz-adv-x="499" 
d="M170 -112q0 36 25 69.5t49 49.5l25 16l61 -13q-9 -6 -21.5 -16.5t-34 -36.5t-21.5 -46q0 -17 14 -27.5t28 -13.5l14 -2l-23 -75q-5 0 -12.5 1.5t-27.5 7.5t-35.5 15.5t-28 28t-12.5 42.5z" />
    <glyph glyph-name="tilde" unicode="&#x2dc;" horiz-adv-x="499" 
d="M81 756q0 127 102 127q29 0 51 -17t40 -34t35 -17q20 0 29.5 19.5t9.5 45.5h70q0 -127 -102 -127q-36 0 -71.5 34t-54.5 34q-39 0 -39 -65h-70z" />
    <glyph glyph-name="hungarumlaut" unicode="&#x2dd;" horiz-adv-x="499" 
d="M240 755l73 127h101l-96 -127h-78zM86 755l68 127h88l-71 -127h-85z" />
    <glyph glyph-name="uni0400" unicode="&#x400;" horiz-adv-x="564" 
d="M93 0v706h411v-86h-312v-221h253v-86h-253v-227h329v-86h-428zM286 755l-95 127h104l73 -127h-82z" />
    <glyph glyph-name="uni0401" unicode="&#x401;" horiz-adv-x="564" 
d="M349 781v101h79v-101h-79zM181 781v101h80v-101h-80zM93 0v706h411v-86h-312v-221h253v-86h-253v-227h329v-86h-428z" />
    <glyph glyph-name="uni0402" unicode="&#x402;" horiz-adv-x="736" 
d="M208 0v620h-193v86h524v-86h-232v-197l-2 -31h2q84 41 178 41q103 0 161 -59t58 -155q0 -108 -62.5 -169.5t-159.5 -61.5q-24 0 -48 3v83q18 -2 36 -2q55 0 95 33.5t40 107.5q0 60 -35.5 96t-103.5 36q-40 0 -80 -10.5t-60 -20.5l-19 -10v-304h-99z" />
    <glyph glyph-name="uni0403" unicode="&#x403;" horiz-adv-x="495" 
d="M229 755l72 127h105l-96 -127h-81zM93 0v706h389v-86h-290v-620h-99z" />
    <glyph glyph-name="uni0404" unicode="&#x404;" horiz-adv-x="716" 
d="M50 357q0 154 100.5 257.5t258.5 103.5q48 0 92 -9.5t73 -23t51 -27.5t32 -24l10 -9l-50 -74q-9 9 -26 21.5t-70 34t-108 21.5q-106 0 -177 -66t-81 -167h369v-82h-369q12 -103 82 -169t178 -66q37 0 73 9t61.5 22t45 26.5t29.5 22.5l10 9l52 -69l-11.5 -11.5t-34 -26.5
t-56 -33.5t-76 -26.5t-96.5 -12q-158 0 -260 106t-102 263z" />
    <glyph glyph-name="uni0405" unicode="&#x405;" horiz-adv-x="545" 
d="M41 81l56 75q34 -33 82 -54.5t96 -21.5q56 0 90 27.5t34 73.5q0 43 -35 73.5t-85.5 51.5t-100.5 45t-85 67t-35 104q0 88 65.5 142t165.5 54q121 0 197 -72l-45 -81q-30 28 -72.5 45t-83.5 17q-55 0 -91 -27.5t-36 -72.5q0 -35 25 -62t63 -42.5t82 -36t82 -42.5t63 -62
t25 -93q0 -86 -60 -143.5t-165 -57.5q-137 0 -232 93z" />
    <glyph glyph-name="uni0406" unicode="&#x406;" horiz-adv-x="286" 
d="M93 0v706h99v-706h-99z" />
    <glyph glyph-name="uni0407" unicode="&#x407;" horiz-adv-x="286" 
d="M93 0v706h99v-706h-99zM189 781v101h79v-101h-79zM21 781v101h80v-101h-80z" />
    <glyph glyph-name="uni0408" unicode="&#x408;" horiz-adv-x="533" 
d="M28 203v35h98v-30q0 -56 27.5 -92.5t83.5 -36.5q48 0 79.5 30.5t31.5 94.5v416h-178v86h276v-503q0 -107 -61.5 -161t-147.5 -54t-147.5 54.5t-61.5 160.5z" />
    <glyph glyph-name="uni0409" unicode="&#x409;" horiz-adv-x="953" 
d="M20 -7v92q88 9 123 114t35 321v186h388v-289h137q99 0 160.5 -57t61.5 -152q0 -94 -61.5 -151t-156.5 -57h-239v620h-191v-100q0 -99 -6 -172.5t-22.5 -141.5t-44.5 -111.5t-74.5 -70.5t-109.5 -31zM566 86h125q60 0 96.5 32t36.5 90q0 56 -37 89.5t-97 33.5h-124v-245z
" />
    <glyph glyph-name="uni040A" unicode="&#x40a;" horiz-adv-x="1008" 
d="M93 0v706h99v-292h329v292h98v-291h143q96 0 156.5 -57t60.5 -151q0 -93 -61.5 -150t-155.5 -57h-241v328h-329v-328h-99zM619 86h127q60 0 96 32t36 89q0 56 -36.5 89t-96.5 33h-126v-243z" />
    <glyph glyph-name="uni040B" unicode="&#x40b;" horiz-adv-x="735" 
d="M208 0v620h-193v86h523v-86h-231v-199l-2 -33h2q90 45 184 45q100 0 148.5 -55.5t48.5 -154.5v-223h-100v209q0 136 -124 136q-87 0 -157 -46v-299h-99z" />
    <glyph glyph-name="uni040C" unicode="&#x40c;" horiz-adv-x="614" 
d="M275 755l72 127h105l-96 -127h-81zM93 0v706h99v-297h105l179 297h109l-206 -335v-2l219 -369h-113l-188 323h-105v-323h-99z" />
    <glyph glyph-name="uni040D" unicode="&#x40d;" horiz-adv-x="752" 
d="M93 0v706h99v-458l-6 -103h2q35 66 60 104l313 457h97v-706h-98v458l6 103h-2q-34 -64 -59 -103l-315 -458h-97zM344 755l-95 127h104l73 -127h-82z" />
    <glyph glyph-name="uni040E" unicode="&#x40e;" horiz-adv-x="599" 
d="M75 34l45 75q46 -35 81 -35q29 0 46.5 19.5t33.5 59.5l-279 553h109l172 -355l40 -93h2q15 49 30 92l131 356h104l-225 -576q-56 -142 -161 -142q-63 0 -129 46zM301 739q-61 0 -104.5 34.5t-43.5 93.5v15h78v-14q0 -31 21 -48.5t49 -17.5q29 0 50 17.5t21 49.5v13h77
v-15q0 -59 -43 -93.5t-105 -34.5z" />
    <glyph glyph-name="uni040F" unicode="&#x40f;" horiz-adv-x="730" 
d="M93 0v706h99v-620h346v620h99v-706h-227v-140h-90v140h-227z" />
    <glyph glyph-name="uni0410" unicode="&#x410;" horiz-adv-x="641" 
d="M15 0l253 706h105l253 -706h-102l-71 203h-266l-71 -203h-101zM213 285h214l-78 223l-28 101h-2q-15 -64 -27 -101z" />
    <glyph glyph-name="uni0411" unicode="&#x411;" horiz-adv-x="605" 
d="M93 0v706h417v-86h-318v-197h155q95 0 155 -56.5t60 -156.5q0 -94 -58.5 -152t-151.5 -58h-259zM192 86h144q59 0 92.5 33t33.5 91t-34.5 92.5t-93.5 34.5h-142v-251z" />
    <glyph glyph-name="uni0412" unicode="&#x412;" horiz-adv-x="624" 
d="M93 0v706h247q92 0 148.5 -48t56.5 -132q0 -51 -23.5 -91t-64.5 -61v-2q55 -16 86 -63t31 -108q0 -96 -65 -148.5t-163 -52.5h-253zM192 409h148q47 0 75.5 30t28.5 77t-28 75.5t-77 28.5h-147v-211zM192 86h159q56 0 88.5 33t32.5 88q0 54 -33 87t-88 33h-159v-241z" />
    <glyph glyph-name="uni0413" unicode="&#x413;" horiz-adv-x="495" 
d="M93 0v706h389v-86h-290v-620h-99z" />
    <glyph glyph-name="uni0414" unicode="&#x414;" horiz-adv-x="720" 
d="M181 86h321v534h-221v-65q0 -316 -100 -469zM6 86h71q66 93 88.5 212t22.5 263v145h413v-620h78v-226h-89v140h-492v-140h-92v226z" />
    <glyph glyph-name="uni0415" unicode="&#x415;" horiz-adv-x="564" 
d="M93 0v706h411v-86h-312v-221h253v-86h-253v-227h329v-86h-428z" />
    <glyph glyph-name="uni0416" unicode="&#x416;" horiz-adv-x="892" 
d="M18 0l205 369v2l-191 335h108l165 -297h92v297h98v-297h93l164 297h108l-191 -335v-2l206 -369h-112l-175 323h-93v-323h-98v323h-92l-176 -323h-111z" />
    <glyph glyph-name="uni0417" unicode="&#x417;" horiz-adv-x="546" 
d="M27 84l55 67q30 -32 74.5 -53t91.5 -21q66 0 106.5 34.5t40.5 93.5q0 54 -36.5 85.5t-95.5 31.5h-87v82h70q54 0 90.5 32t36.5 82q0 49 -31.5 81t-93.5 32q-87 0 -158 -60l-42 74q88 73 214 73q93 0 152.5 -50.5t59.5 -137.5q0 -108 -102 -159v-2q57 -16 90.5 -60.5
t33.5 -108.5q0 -96 -68.5 -154t-171.5 -58q-65 0 -126.5 25.5t-102.5 70.5z" />
    <glyph glyph-name="uni0418" unicode="&#x418;" horiz-adv-x="752" 
d="M93 0v706h99v-458l-6 -103h2q35 66 60 104l313 457h97v-706h-98v458l6 103h-2q-34 -64 -59 -103l-315 -458h-97z" />
    <glyph glyph-name="uni0419" unicode="&#x419;" horiz-adv-x="752" 
d="M379 739q-61 0 -104.5 34.5t-43.5 93.5v15h78v-14q0 -31 21 -48.5t49 -17.5q29 0 50 17.5t21 49.5v13h77v-15q0 -59 -43 -93.5t-105 -34.5zM93 0v706h99v-458l-6 -103h2q35 66 60 104l313 457h97v-706h-98v458l6 103h-2q-34 -64 -59 -103l-315 -458h-97z" />
    <glyph glyph-name="uni041A" unicode="&#x41a;" horiz-adv-x="614" 
d="M93 0v706h99v-297h105l179 297h109l-206 -335v-2l219 -369h-113l-188 323h-105v-323h-99z" />
    <glyph glyph-name="uni041B" unicode="&#x41b;" horiz-adv-x="678" 
d="M12 83q87 12 124 123t37 333v167h412v-706h-99v620h-219v-82q0 -268 -57.5 -403t-197.5 -143v91z" />
    <glyph glyph-name="uni041C" unicode="&#x41c;" horiz-adv-x="851" 
d="M66 0l58 706h103l163 -382l34 -95h2q19 56 35 95l163 382h103l57 -706h-98l-34 445l-2 104h-2q-22 -65 -38 -104l-141 -318h-88l-140 318l-38 106h-2q2 -63 -2 -106l-34 -445h-99z" />
    <glyph glyph-name="uni041D" unicode="&#x41d;" horiz-adv-x="750" 
d="M93 0v706h99v-310h367v310h98v-706h-98v310h-367v-310h-99z" />
    <glyph glyph-name="uni041E" unicode="&#x41e;" horiz-adv-x="823" 
d="M49 358q0 152 105 256t258 104t257.5 -104t104.5 -256q0 -156 -104.5 -263t-257.5 -107t-258 107t-105 263zM151 358q0 -118 76 -198.5t185 -80.5t184.5 80.5t75.5 198.5q0 114 -75.5 192t-184.5 78t-185 -78t-76 -192z" />
    <glyph glyph-name="uni041F" unicode="&#x41f;" horiz-adv-x="742" 
d="M93 0v706h556v-706h-99v620h-358v-620h-99z" />
    <glyph glyph-name="uni0420" unicode="&#x420;" horiz-adv-x="604" 
d="M93 0v706h259q98 0 159.5 -60.5t61.5 -160.5t-62 -162t-159 -62h-160v-261h-99zM192 347h144q63 0 100 37t37 101q0 63 -36.5 99t-99.5 36h-145v-273z" />
    <glyph glyph-name="uni0421" unicode="&#x421;" horiz-adv-x="717" 
d="M50 357q0 155 101.5 258t257.5 103q161 0 258 -93l-50 -74q-39 35 -94.5 56t-109.5 21q-120 0 -190.5 -77t-70.5 -193q0 -117 72 -198t191 -81q59 0 116.5 24.5t100.5 67.5l53 -71q-112 -112 -273 -112t-261.5 105.5t-100.5 263.5z" />
    <glyph glyph-name="uni0422" unicode="&#x422;" horiz-adv-x="615" 
d="M258 0v620h-243v86h584v-86h-243v-620h-98z" />
    <glyph glyph-name="uni0423" unicode="&#x423;" horiz-adv-x="599" 
d="M75 34l45 75q46 -35 81 -35q29 0 46.5 19.5t33.5 59.5l-279 553h109l172 -355l40 -93h2q15 49 30 92l131 356h104l-225 -576q-56 -142 -161 -142q-63 0 -129 46z" />
    <glyph glyph-name="uni0424" unicode="&#x424;" horiz-adv-x="832" 
d="M39 376q0 132 90.5 212.5t237.5 80.5v81h99v-81q146 0 237 -80.5t91 -212.5q0 -134 -90.5 -216t-237.5 -82v-90h-99v90q-147 0 -237.5 82t-90.5 216zM466 162q103 0 165 58t62 156q0 96 -62 152.5t-165 56.5v-423zM140 376q0 -98 62 -156t165 -58v423q-103 0 -165 -56.5
t-62 -152.5z" />
    <glyph glyph-name="uni0425" unicode="&#x425;" horiz-adv-x="598" 
d="M16 0l222 364l-208 342h113l111 -191l44 -82h2q21 43 44 82l112 191h114l-210 -342l223 -364h-111l-129 217l-44 81h-2q-21 -42 -43 -81l-128 -217h-110z" />
    <glyph glyph-name="uni0426" unicode="&#x426;" horiz-adv-x="757" 
d="M93 0v706h99v-620h346v620h99v-620h81v-226h-89v140h-536z" />
    <glyph glyph-name="uni0427" unicode="&#x427;" horiz-adv-x="639" 
d="M264 271q-107 0 -160 53t-53 153v229h100v-208q0 -68 32 -102.5t102 -34.5q88 0 160 48v297h100v-706h-100v286l2 33h-2q-91 -48 -181 -48z" />
    <glyph glyph-name="uni0428" unicode="&#x428;" horiz-adv-x="1005" 
d="M93 0v706h99v-620h261v620h99v-620h261v620h98v-706h-818z" />
    <glyph glyph-name="uni0429" unicode="&#x429;" horiz-adv-x="1036" 
d="M93 0v706h99v-620h261v620h99v-620h261v620h98v-620h87v-226h-90v140h-815z" />
    <glyph glyph-name="uni042A" unicode="&#x42a;" horiz-adv-x="687" 
d="M192 0v620h-184v86h283v-266h149q95 0 155 -59.5t60 -162.5q0 -98 -59 -158t-152 -60h-252zM291 86h137q59 0 93 35t34 97t-35 99t-94 37h-135v-268z" />
    <glyph glyph-name="uni042B" unicode="&#x42b;" horiz-adv-x="844" 
d="M652 0v706h98v-706h-98zM93 0v706h99v-266h145q95 0 155 -59.5t60 -162.5q0 -98 -58.5 -158t-151.5 -60h-249zM192 86h134q59 0 92.5 35t33.5 97t-34.5 99t-93.5 37h-132v-268z" />
    <glyph glyph-name="uni042C" unicode="&#x42c;" horiz-adv-x="589" 
d="M93 0v706h99v-266h150q95 0 155 -59.5t60 -162.5q0 -98 -59 -158t-152 -60h-253zM192 86h137q60 0 93.5 35t33.5 97t-34.5 99t-93.5 37h-136v-268z" />
    <glyph glyph-name="uni042D" unicode="&#x42d;" horiz-adv-x="716" 
d="M33 96l52 69q38 -39 97.5 -63t122.5 -24q104 0 174.5 67t82.5 168h-369v82h370q-10 102 -81 167.5t-176 65.5q-118 0 -209 -79l-49 74q46 46 116 70.5t144 24.5q159 0 259 -103t100 -257q0 -158 -102.5 -264t-259.5 -106q-79 0 -150 29t-122 79z" />
    <glyph glyph-name="uni042E" unicode="&#x42e;" horiz-adv-x="1066" 
d="M93 0v706h99v-310h120q12 138 111.5 230t238.5 92q150 0 252.5 -104t102.5 -256q0 -156 -102.5 -263t-252.5 -107q-137 0 -235 91.5t-113 230.5h-122v-310h-99zM411 358q0 -117 73 -198t178 -81t179 81t74 198q0 113 -73.5 191t-179.5 78q-105 0 -178 -78t-73 -191z" />
    <glyph glyph-name="uni042F" unicode="&#x42f;" horiz-adv-x="622" 
d="M23 0l158 263l21 33v2q-67 24 -100.5 77t-33.5 126q0 67 30 115t81 71q44 19 132 19h218v-706h-99v281h-130l-166 -281h-111zM294 365h136v255h-112q-62 0 -92 -16q-57 -32 -57 -107q0 -61 33.5 -96.5t91.5 -35.5z" />
    <glyph glyph-name="uni0430" unicode="&#x430;" horiz-adv-x="526" 
d="M33 138q0 56 31 94t82.5 54.5t95.5 22.5t93 6h26v10q0 111 -111 111q-73 0 -142 -49l-39 71q31 26 84 43t105 17q96 0 148 -51t52 -147v-320h-91v51l3 40h-2q-23 -45 -67.5 -74t-98.5 -29q-69 0 -119 41t-50 109zM130 146q0 -33 25 -57t70 -24q60 0 98 50t38 111v19h-25
q-206 0 -206 -99z" />
    <glyph glyph-name="uni0431" unicode="&#x431;" horiz-adv-x="586" 
d="M53 291q0 141 50 226t178 139l181 78l32 -80l-194 -81q-76 -35 -113.5 -82.5t-42.5 -119.5h2q60 90 179 90q96 0 155.5 -63.5t59.5 -169.5t-66 -173t-173 -67q-123 0 -185.5 82.5t-62.5 220.5zM154 228q0 -73 41 -115.5t102 -42.5q62 0 103.5 42.5t41.5 113.5
q0 72 -41 115t-100 43q-64 0 -105.5 -44.5t-41.5 -111.5z" />
    <glyph glyph-name="uni0432" unicode="&#x432;" horiz-adv-x="520" 
d="M75 0v506h209q78 0 123.5 -33.5t45.5 -96.5q0 -37 -19 -66.5t-53 -44.5v-1q46 -11 71 -44t25 -76q0 -69 -50.5 -106.5t-135.5 -37.5h-216zM172 292h95q43 0 65 20.5t22 56.5q0 70 -90 70h-92v-147zM172 68h104q51 0 77 21t26 58q0 38 -27 59t-77 21h-103v-159z" />
    <glyph glyph-name="uni0433" unicode="&#x433;" horiz-adv-x="413" 
d="M75 0v506h317v-83h-220v-423h-97z" />
    <glyph glyph-name="uni0434" unicode="&#x434;" horiz-adv-x="594" 
d="M174 80h224v347h-152v-27q0 -208 -72 -320zM12 80h62q79 108 79 333v93h342v-426h72v-200h-89v120h-375v-120h-91v200z" />
    <glyph glyph-name="uni0435" unicode="&#x435;" horiz-adv-x="557" 
d="M42 253q0 119 72 192t182 73q103 0 161 -67.5t58 -169.5q0 -13 -4 -41h-368q4 -79 53.5 -123.5t120.5 -44.5q83 0 149 59l41 -71q-36 -33 -89.5 -52.5t-106.5 -19.5q-118 0 -193.5 75.5t-75.5 189.5zM146 310h271q-2 63 -36.5 98t-86.5 35q-57 0 -97.5 -35.5t-50.5 -97.5
z" />
    <glyph glyph-name="uni0436" unicode="&#x436;" horiz-adv-x="752" 
d="M17 0l163 260v2l-149 244h103l124 -207h72v207h92v-207h72l125 207h102l-148 -244v-2l163 -260h-109l-132 216h-73v-216h-92v216h-72l-133 -216h-108z" />
    <glyph glyph-name="uni0437" unicode="&#x437;" horiz-adv-x="448" 
d="M26 62l45 64q57 -60 132 -60q46 0 75.5 21.5t29.5 61.5q0 77 -104 77h-62v70h53q96 0 96 73q0 35 -24 54t-66 19q-64 0 -123 -44l-36 65q74 55 176 55q75 0 123 -36t48 -101q0 -84 -74 -115v-2q91 -29 91 -119q0 -75 -55.5 -116t-138.5 -41q-108 0 -186 74z" />
    <glyph glyph-name="uni0438" unicode="&#x438;" horiz-adv-x="598" 
d="M75 0v506h93v-302q0 -53 -3 -68h2q5 12 45 68l218 302h94v-506h-94v302q0 14 1.5 39.5t1.5 27.5h-2q-1 -2 -44 -67l-219 -302h-93z" />
    <glyph glyph-name="uni0439" unicode="&#x439;" horiz-adv-x="598" 
d="M298 564q-61 0 -104.5 34.5t-43.5 93.5v15h78v-14q0 -31 21 -48.5t49 -17.5q29 0 50 17.5t21 49.5v13h77v-15q0 -59 -43 -93.5t-105 -34.5zM75 0v506h93v-302q0 -53 -3 -68h2q5 12 45 68l218 302h94v-506h-94v302q0 14 1.5 39.5t1.5 27.5h-2q-1 -2 -44 -67l-219 -302h-93
z" />
    <glyph glyph-name="uni043A" unicode="&#x43a;" horiz-adv-x="522" 
d="M75 0v506h97v-204h71l138 204h110l-169 -241v-2l189 -263h-115l-151 219h-73v-219h-97z" />
    <glyph glyph-name="uni043B" unicode="&#x43b;" horiz-adv-x="548" 
d="M20 -5v87q57 9 85.5 71.5t28.5 196.5v156h339v-506h-97v426h-149v-76q0 -175 -48.5 -262t-158.5 -93z" />
    <glyph glyph-name="uni043C" unicode="&#x43c;" horiz-adv-x="730" 
d="M54 0l44 506h108l129 -286l28 -68h2l28 68l132 286h106l44 -506h-94l-22 301l1 87h-2q-13 -35 -32 -74l-120 -253h-83l-120 252l-32 75h-2l1 -87l-22 -301h-94z" />
    <glyph glyph-name="uni043D" unicode="&#x43d;" horiz-adv-x="600" 
d="M75 0v506h97v-206h256v206h97v-506h-97v217h-256v-217h-97z" />
    <glyph glyph-name="uni043E" unicode="&#x43e;" horiz-adv-x="629" 
d="M42 254q0 113 79 188.5t193 75.5q115 0 194 -75t79 -189t-79 -190t-193 -76t-193.5 76t-79.5 190zM141 254q0 -79 50.5 -130.5t123.5 -51.5q72 0 123 52t51 130t-51 129t-123 51q-73 0 -123.5 -51t-50.5 -129z" />
    <glyph glyph-name="uni043F" unicode="&#x43f;" horiz-adv-x="592" 
d="M75 0v506h442v-506h-97v423h-248v-423h-97z" />
    <glyph glyph-name="uni0440" unicode="&#x440;" horiz-adv-x="601" 
d="M75 -200v706h90v-45l-3 -38h2q24 45 69 70t101 25q102 0 162 -73t60 -192q0 -120 -64 -192.5t-165 -72.5t-157 86h-2q4 -18 4 -44v-230h-97zM169 251q0 -72 38.5 -125.5t104.5 -53.5q62 0 104 48.5t42 131.5q0 82 -39.5 131.5t-103.5 49.5q-62 0 -104 -46t-42 -136z" />
    <glyph glyph-name="uni0441" unicode="&#x441;" horiz-adv-x="545" 
d="M42 253q0 113 76.5 189t194.5 76q120 0 190 -74l-46 -68q-58 58 -140 58q-76 0 -126 -51.5t-50 -128.5q0 -78 50.5 -130t128.5 -52q42 0 84.5 18.5t71.5 49.5l39 -71q-35 -37 -89 -59t-113 -22q-119 0 -195 75t-76 190z" />
    <glyph glyph-name="uni0442" unicode="&#x442;" horiz-adv-x="490" 
d="M197 0v423h-176v83h449v-83h-177v-423h-96z" />
    <glyph glyph-name="uni0443" unicode="&#x443;" horiz-adv-x="535" 
d="M50 -105q28 -22 58 -22q61 0 92 75l25 58l-212 500h109l127 -331l19 -61h2q8 34 17 60l123 332h105l-238 -597q-22 -58 -65.5 -88.5t-98.5 -30.5q-25 0 -49 8t-36 16l-12 7z" />
    <glyph glyph-name="uni0444" unicode="&#x444;" horiz-adv-x="726" 
d="M43 254q0 114 77 186t197 77v183h93v-183q120 -5 196.5 -76.5t76.5 -186.5t-76.5 -188t-196.5 -78v-188h-93v188q-120 5 -197 78t-77 188zM410 69q79 5 128.5 55t49.5 130q0 81 -49.5 129.5t-128.5 53.5v-368zM139 254q0 -80 49.5 -130t128.5 -55v368q-80 -5 -129 -53.5
t-49 -129.5z" />
    <glyph glyph-name="uni0445" unicode="&#x445;" horiz-adv-x="499" 
d="M17 0l173 260l-163 246h111l94 -154l16 -30h2q10 17 17 30l94 154h111l-163 -246l173 -260h-110l-106 169l-16 27h-2q-7 -15 -15 -27l-106 -169h-110z" />
    <glyph glyph-name="uni0446" unicode="&#x446;" horiz-adv-x="610" 
d="M75 0v506h97v-422h241v422h98v-422h71v-204h-89v120h-418z" />
    <glyph glyph-name="uni0447" unicode="&#x447;" horiz-adv-x="523" 
d="M213 176q-82 0 -126 42.5t-44 122.5v165h95v-151q0 -43 22 -69t79 -26q62 0 112 36v210h97v-506h-97v183l1 30h-2q-59 -37 -137 -37z" />
    <glyph glyph-name="uni0448" unicode="&#x448;" horiz-adv-x="804" 
d="M75 0v506h93v-422h187v422h94v-422h187v422h93v-506h-654z" />
    <glyph glyph-name="uni0449" unicode="&#x449;" horiz-adv-x="829" 
d="M75 0v506h93v-422h187v422h94v-422h187v422h93v-422h72v-204h-89v120h-637z" />
    <glyph glyph-name="uni044A" unicode="&#x44a;" horiz-adv-x="559" 
d="M147 0v423h-137v83h234v-183h102q83 0 133 -40.5t50 -122.5q0 -74 -46 -117t-138 -43h-198zM244 70h87q50 0 75 24.5t25 66.5q0 43 -24.5 67.5t-75.5 24.5h-87v-183z" />
    <glyph glyph-name="uni044B" unicode="&#x44b;" horiz-adv-x="705" 
d="M533 0v506h97v-506h-97zM75 0v506h97v-183h99q84 0 134 -40.5t50 -122.5q0 -74 -46.5 -117t-138.5 -43h-195zM172 70h85q50 0 75 24.5t25 66.5t-25 67t-76 25h-84v-183z" />
    <glyph glyph-name="uni044C" unicode="&#x44c;" horiz-adv-x="487" 
d="M75 0v506h97v-183h102q84 0 134 -40.5t50 -122.5q0 -74 -46.5 -117t-139.5 -43h-197zM172 70h87q50 0 75 24.5t25 66.5q0 43 -24.5 67.5t-75.5 24.5h-87v-183z" />
    <glyph glyph-name="uni044D" unicode="&#x44d;" horiz-adv-x="544" 
d="M30 64l38 69q64 -65 159 -65q70 0 119.5 41.5t59.5 108.5h-242v70h242q-10 68 -59 109.5t-117 41.5q-84 0 -146 -59l-44 67q32 35 84.5 53t108.5 18q117 0 192.5 -75.5t75.5 -189.5q0 -115 -75.5 -190t-194.5 -75q-122 0 -201 76z" />
    <glyph glyph-name="uni044E" unicode="&#x44e;" horiz-adv-x="828" 
d="M75 0v506h97v-212h92q14 98 86 161t172 63q111 0 187.5 -75t76.5 -189t-76 -190t-187 -76q-100 0 -172.5 63.5t-86.5 162.5h-92v-214h-97zM358 254q0 -79 47.5 -130.5t117.5 -51.5q69 0 116.5 51.5t47.5 130.5q0 78 -47.5 129t-116.5 51q-70 0 -117.5 -51t-47.5 -129z
" />
    <glyph glyph-name="uni044F" unicode="&#x44f;" horiz-adv-x="512" 
d="M24 0l117 168l23 31v1q-46 13 -78 52.5t-32 94.5q0 76 49.5 117.5t131.5 41.5h202v-506h-97v183h-85l-124 -183h-107zM256 254h84v185h-81q-107 0 -107 -91q0 -46 29 -70t75 -24z" />
    <glyph glyph-name="uni0450" unicode="&#x450;" horiz-adv-x="557" 
d="M42 253q0 119 72 192t182 73q103 0 161 -67.5t58 -169.5q0 -13 -4 -41h-368q4 -79 53.5 -123.5t120.5 -44.5q83 0 149 59l41 -71q-36 -33 -89.5 -52.5t-106.5 -19.5q-118 0 -193.5 75.5t-75.5 189.5zM146 310h271q-2 63 -36.5 98t-86.5 35q-57 0 -97.5 -35.5t-50.5 -97.5
zM268 580l-95 127h104l73 -127h-82z" />
    <glyph glyph-name="uni0451" unicode="&#x451;" horiz-adv-x="557" 
d="M335 606v101h79v-101h-79zM167 606v101h80v-101h-80zM42 253q0 119 72 192t182 73q103 0 161 -67.5t58 -169.5q0 -13 -4 -41h-368q4 -79 53.5 -123.5t120.5 -44.5q83 0 149 59l41 -71q-36 -33 -89.5 -52.5t-106.5 -19.5q-118 0 -193.5 75.5t-75.5 189.5zM146 310h271
q-2 63 -36.5 98t-86.5 35q-57 0 -97.5 -35.5t-50.5 -97.5z" />
    <glyph glyph-name="uni0452" unicode="&#x452;" horiz-adv-x="603" 
d="M75 0v553h-63v71h63v82h97v-82h206v-71h-206v-163l-2 -42h2q20 43 69.5 78t118.5 35q173 0 173 -194v-271q0 -50 -14 -89t-34 -60.5t-47 -35t-48.5 -17.5t-43.5 -4l-41 3v83q13 -2 29 -2q17 0 32 4.5t32.5 16t27.5 37.5t10 64v249q0 61 -19.5 94t-75.5 33q-57 0 -101 -35
t-60 -90q-8 -27 -8 -67v-180h-97z" />
    <glyph glyph-name="uni0453" unicode="&#x453;" horiz-adv-x="413" 
d="M172 580l72 127h105l-96 -127h-81zM75 0v506h317v-83h-220v-423h-97z" />
    <glyph glyph-name="uni0454" unicode="&#x454;" horiz-adv-x="545" 
d="M42 253q0 113 76.5 189t194.5 76q57 0 105 -18t67 -36l19 -17l-45 -68q-6 6 -17.5 16t-49 26t-76.5 16q-70 0 -119 -39.5t-59 -105.5h241v-70h-242q9 -70 59 -112t123 -42q44 0 83.5 17t57.5 35l18 17l38 -70l-8.5 -8.5t-25 -19t-41 -24t-56.5 -19t-72 -8.5
q-119 0 -195 75t-76 190z" />
    <glyph glyph-name="uni0455" unicode="&#x455;" horiz-adv-x="447" 
d="M32 62l46 66q61 -59 149 -59q39 0 62.5 17.5t23.5 48.5q0 26 -27 45t-65 33t-76 31t-65 49.5t-27 78.5q0 69 52 107.5t130 38.5q102 0 164 -56l-39 -70q-22 21 -57.5 33t-70.5 12q-39 0 -62.5 -16t-23.5 -47q0 -27 27 -46t65 -32.5t76.5 -30.5t65.5 -49.5t27 -78.5
q0 -65 -51 -107t-131 -42q-120 0 -193 74z" />
    <glyph glyph-name="uni0456" unicode="&#x456;" horiz-adv-x="246" 
d="M73 608v98h100v-98h-100zM75 0v506h97v-506h-97z" />
    <glyph glyph-name="uni0457" unicode="&#x457;" horiz-adv-x="246" 
d="M169 606v101h79v-101h-79zM1 606v101h80v-101h-80zM75 0v506h97v-506h-97z" />
    <glyph glyph-name="uni0458" unicode="&#x458;" horiz-adv-x="246" 
d="M73 608v98h100v-98h-100zM75 -11v517h97v-523q0 -48 -14.5 -84t-35 -55.5t-49 -31.5t-50.5 -15t-45 -3q-10 0 -34 2v83q10 -2 22 -2q18 0 34 4t34.5 14.5t29.5 34.5t11 59z" />
    <glyph glyph-name="uni0459" unicode="&#x459;" horiz-adv-x="753" 
d="M26 -5v87q59 8 87 70t28 194v160h300v-190h100q84 0 134 -39.5t50 -120.5q0 -72 -46.5 -114t-139.5 -42h-195v426h-110v-77q0 -180 -48 -264t-160 -90zM441 70h89q50 0 74.5 23t24.5 63q0 41 -24.5 65t-74.5 24h-89v-175z" />
    <glyph glyph-name="uni045A" unicode="&#x45a;" horiz-adv-x="817" 
d="M75 0v506h97v-193h236v193h97v-194h96q84 0 136 -38.5t52 -116.5q0 -73 -46.5 -115t-139.5 -42h-195v235h-236v-235h-97zM505 70h89q100 0 100 87q0 85 -104 85h-85v-172z" />
    <glyph glyph-name="uni045B" unicode="&#x45b;" horiz-adv-x="603" 
d="M75 0v553h-63v71h63v82h97v-82h206v-71h-206v-163l-2 -42h2q20 44 69.5 78.5t118.5 34.5q89 0 131 -48t42 -145v-268h-97v246q0 61 -19.5 93.5t-75.5 32.5q-57 0 -101 -34.5t-60 -89.5q-8 -28 -8 -68v-180h-97z" />
    <glyph glyph-name="uni045C" unicode="&#x45c;" horiz-adv-x="522" 
d="M217 580l72 127h105l-96 -127h-81zM75 0v506h97v-204h71l138 204h110l-169 -241v-2l189 -263h-115l-151 219h-73v-219h-97z" />
    <glyph glyph-name="uni045D" unicode="&#x45d;" horiz-adv-x="598" 
d="M75 0v506h93v-302q0 -53 -3 -68h2q5 12 45 68l218 302h94v-506h-94v302q0 14 1.5 39.5t1.5 27.5h-2q-1 -2 -44 -67l-219 -302h-93zM279 580l-95 127h104l73 -127h-82z" />
    <glyph glyph-name="uni045E" unicode="&#x45e;" horiz-adv-x="535" 
d="M50 -105q28 -22 58 -22q61 0 92 75l25 58l-212 500h109l127 -331l19 -61h2q8 34 17 60l123 332h105l-238 -597q-22 -58 -65.5 -88.5t-98.5 -30.5q-25 0 -49 8t-36 16l-12 7zM268 564q-61 0 -104.5 34.5t-43.5 93.5v15h78v-14q0 -31 21 -48.5t49 -17.5q29 0 50 17.5
t21 49.5v13h77v-15q0 -59 -43 -93.5t-105 -34.5z" />
    <glyph glyph-name="uni045F" unicode="&#x45f;" horiz-adv-x="575" 
d="M75 0v506h97v-422h231v422h96v-506h-167v-120h-89v120h-168z" />
    <glyph glyph-name="uni0462" unicode="&#x462;" horiz-adv-x="689" 
d="M190 0v539h-178v79h179v103h97v-103h204v-79h-204v-116h151q96 0 157.5 -57t61.5 -152q0 -96 -61.5 -155t-156.5 -59h-250zM288 86h136q60 0 96.5 34t36.5 94q0 56 -37 89.5t-97 33.5h-135v-251z" />
    <glyph glyph-name="uni0463" unicode="&#x463;" horiz-adv-x="535" 
d="M120 0v459h-121v73h121v174h97v-174h166v-73h-166v-136h105q83 0 133 -40.5t50 -122.5q0 -74 -46 -117t-138 -43h-201zM217 70h90q51 0 76 24.5t25 66.5t-25 67t-76 25h-90v-183z" />
    <glyph glyph-name="uni0472" unicode="&#x472;" horiz-adv-x="823" 
d="M49 358q0 153 104 256.5t259 103.5t258.5 -103.5t103.5 -256.5q0 -157 -103.5 -263.5t-258.5 -106.5t-259 106.5t-104 263.5zM412 76q102 0 174.5 68t85.5 173h-521q14 -105 86.5 -173t174.5 -68zM412 630q-102 0 -175 -66t-86 -168h521q-13 102 -86 168t-174 66z" />
    <glyph glyph-name="uni0473" unicode="&#x473;" horiz-adv-x="629" 
d="M42 254q0 113 79 188.5t193 75.5q115 0 194 -75t79 -189t-79 -190t-193 -76t-193.5 76t-79.5 190zM315 63q69 0 119.5 45t60.5 117h-360q9 -72 60 -117t120 -45zM315 443q-69 0 -119.5 -43.5t-60.5 -112.5h359q-10 69 -60.5 112.5t-118.5 43.5z" />
    <glyph glyph-name="uni0474" unicode="&#x474;" horiz-adv-x="688" 
d="M270 0l-258 706h107l175 -499l27 -97h2q14 59 27 97l141 420q17 51 40 65t78 14h66v-87h-23q-21 0 -29 -0.5t-19 -5.5t-18 -16.5t-14 -31.5l-198 -565h-104z" />
    <glyph glyph-name="uni0475" unicode="&#x475;" horiz-adv-x="564" 
d="M208 0l-189 506h102l123 -342l18 -69h2q9 41 18 69l84 251q17 51 43.5 71t78.5 20h57v-85h-22q-33 0 -47.5 -10.5t-26.5 -44.5l-129 -366h-112z" />
    <glyph glyph-name="uni048A" unicode="&#x48a;" horiz-adv-x="790" 
d="M93 0v706h99v-458l-6 -103h2q35 66 60 104l313 457h97v-620h109v-57l-72 -169h-72l42 140h-105v458l6 103h-2q-34 -64 -59 -103l-315 -458h-97zM381 739q-61 0 -104.5 34.5t-43.5 93.5v15h78v-14q0 -31 21 -48.5t49 -17.5q29 0 50 17.5t21 49.5v13h77v-15
q0 -59 -43 -93.5t-105 -34.5z" />
    <glyph glyph-name="uni048B" unicode="&#x48b;" horiz-adv-x="640" 
d="M75 0v506h93v-302q0 -53 -3 -68h2q5 12 45 68l218 302h94v-423h92v-55l-62 -148h-69l36 120h-91v302q0 14 1.5 39.5t1.5 27.5h-2q-1 -2 -44 -67l-219 -302h-93zM303 564q-61 0 -104.5 34.5t-43.5 93.5v15h78v-14q0 -31 21 -48.5t49 -17.5q29 0 50 17.5t21 49.5v13h77v-15
q0 -59 -43 -93.5t-105 -34.5z" />
    <glyph glyph-name="uni048C" unicode="&#x48c;" horiz-adv-x="677" 
d="M173 0v570h-162v77h164v103h97v-103h184v-77h-184v-142h157q95 0 156.5 -58.5t61.5 -155.5q0 -96 -61.5 -155t-155.5 -59h-257zM272 86h141q60 0 96.5 34t36.5 94q0 59 -37 93.5t-97 34.5h-140v-256z" />
    <glyph glyph-name="uni048D" unicode="&#x48d;" horiz-adv-x="540" 
d="M125 0v459h-121v73h121v174h97v-174h166v-73h-166v-136h105q83 0 133 -40.5t50 -122.5q0 -74 -46 -117t-138 -43h-201zM222 70h90q51 0 76 24.5t25 66.5t-25 67t-76 25h-90v-183z" />
    <glyph glyph-name="uni048E" unicode="&#x48e;" horiz-adv-x="622" 
d="M93 0v706h259q98 0 159.5 -60.5t61.5 -160.5q0 -103 -65 -165l59 -78l-54 -45l-64 83q-46 -19 -97 -19h-160v-261h-99zM329 438l56 45l69 -92q26 37 26 89q0 66 -37 103t-103 37h-148v-281h147q33 0 58 9z" />
    <glyph glyph-name="uni048F" unicode="&#x48f;" horiz-adv-x="609" 
d="M75 -200v706h90v-45l-3 -38h2l5.5 10.5t18 22.5t32 28.5t48.5 23t66 10.5q102 0 162 -73t60 -192q0 -114 -59 -187l55 -65l-54 -47l-55 65q-53 -31 -116 -31q-31 0 -58.5 9t-44.5 21.5t-30 25t-18 21.5l-6 9h-2q4 -18 4 -44v-230h-97zM318 170l54 47l65 -79q28 45 28 111
q0 84 -40.5 134t-106.5 50q-64 0 -106.5 -46t-42.5 -139q0 -73 39 -126t108 -53q38 0 70 18z" />
    <glyph glyph-name="uni0490" unicode="&#x490;" horiz-adv-x="503" 
d="M93 0v706h314v97h83v-183h-298v-620h-99z" />
    <glyph glyph-name="uni0491" unicode="&#x491;" horiz-adv-x="413" 
d="M75 0v506h240v91h78v-174h-221v-423h-97z" />
    <glyph glyph-name="uni0492" unicode="&#x492;" horiz-adv-x="506" 
d="M99 0v309h-61v73h61v324h388v-86h-290v-238h160v-73h-160v-309h-98z" />
    <glyph glyph-name="uni0493" unicode="&#x493;" horiz-adv-x="420" 
d="M78 0v208h-62v66h62v232h318v-83h-221v-149h129v-66h-129v-208h-97z" />
    <glyph glyph-name="uni0494" unicode="&#x494;" horiz-adv-x="611" 
d="M93 0v706h390v-86h-291v-228q62 29 136 29q242 0 242 -284q0 -161 -68.5 -238t-187.5 -77v81q153 0 153 234q0 105 -38 151.5t-120 46.5q-53 0 -117 -27v-308h-99z" />
    <glyph glyph-name="uni0495" unicode="&#x495;" horiz-adv-x="503" 
d="M75 0v506h324v-79h-227v-164q55 25 111 25q97 0 142.5 -62t45.5 -153q0 -182 -151 -280l-47 68q104 69 104 206q0 140 -113 140q-50 0 -92 -26v-181h-97z" />
    <glyph glyph-name="uni0496" unicode="&#x496;" horiz-adv-x="938" 
d="M18 0l205 369v2l-191 335h108l165 -297h92v297h98v-297h93l164 297h108l-191 -335v-2l158 -283h96v-226h-89v140h-71l-175 323h-93v-323h-98v323h-92l-176 -323h-111z" />
    <glyph glyph-name="uni0497" unicode="&#x497;" horiz-adv-x="792" 
d="M17 0l163 260v2l-149 244h103l124 -207h72v207h92v-207h72l125 207h102l-148 -244v-2l110 -176h90v-204h-89v120h-57l-132 216h-73v-216h-92v216h-72l-133 -216h-108z" />
    <glyph glyph-name="uni0498" unicode="&#x498;" horiz-adv-x="548" 
d="M27 84l55 67q30 -32 74.5 -53t91.5 -21q66 0 106.5 34.5t40.5 93.5q0 54 -36.5 85.5t-95.5 31.5h-87v82h70q54 0 90.5 32t36.5 82q0 49 -31.5 81t-93.5 32q-87 0 -158 -60l-42 74q88 73 214 73q93 0 152.5 -50.5t59.5 -137.5q0 -108 -102 -159v-2q57 -16 90.5 -60.5
t33.5 -108.5q0 -84 -53.5 -139.5t-137.5 -68.5v-132h-90v131q-119 15 -188 93z" />
    <glyph glyph-name="uni0499" unicode="&#x499;" horiz-adv-x="450" 
d="M26 62l45 64q57 -60 132 -60q46 0 75.5 21.5t29.5 61.5q0 77 -104 77h-62v70h53q96 0 96 73q0 35 -24 54t-66 19q-64 0 -123 -44l-36 65q74 55 176 55q75 0 123 -36t48 -101q0 -84 -74 -115v-2q91 -29 91 -119q0 -62 -39 -101t-102 -51v-113h-87v110q-90 11 -152 72z" />
    <glyph glyph-name="uni049A" unicode="&#x49a;" horiz-adv-x="659" 
d="M93 0v706h99v-297h105l179 297h109l-206 -335v-2l168 -283h97v-226h-89v140h-70l-188 323h-105v-323h-99z" />
    <glyph glyph-name="uni049B" unicode="&#x49b;" horiz-adv-x="557" 
d="M75 0v506h97v-204h71l138 204h110l-169 -241v-2l128 -179h89v-204h-89v120h-54l-151 219h-73v-219h-97z" />
    <glyph glyph-name="uni049C" unicode="&#x49c;" horiz-adv-x="702" 
d="M93 0v706h99v-297h71v120h74v-120h48l178 297h109l-205 -335v-2l219 -369h-113l-188 323h-48v-121h-74v121h-71v-323h-99z" />
    <glyph glyph-name="uni049D" unicode="&#x49d;" horiz-adv-x="598" 
d="M75 0v506h97v-204h54v102h70v-102h23l138 204h110l-168 -241v-2l188 -263h-114l-151 219h-26v-104h-70v104h-54v-219h-97z" />
    <glyph glyph-name="uni049E" unicode="&#x49e;" horiz-adv-x="619" 
d="M16 525v71h80v110h99v-110h95v-71h-95v-116h105l179 297h109l-206 -335v-2l219 -369h-113l-188 323h-105v-323h-99v525h-80z" />
    <glyph glyph-name="uni049F" unicode="&#x49f;" horiz-adv-x="522" 
d="M75 0v529h-62v68h62v109h97v-109h113v-68h-113v-213h72l137 190h110l-168 -227v-2l187 -277h-113l-151 232h-74v-232h-97z" />
    <glyph glyph-name="uni04A0" unicode="&#x4a0;" horiz-adv-x="750" 
d="M229 0v620h-212v86h310v-297h106l178 297h109l-206 -335v-2l219 -369h-112l-188 323h-106v-323h-98z" />
    <glyph glyph-name="uni04A1" unicode="&#x4a1;" horiz-adv-x="593" 
d="M147 0v423h-137v83h234v-204h71l138 204h109l-168 -241v-2l189 -263h-115l-151 219h-73v-219h-97z" />
    <glyph glyph-name="uni04A2" unicode="&#x4a2;" horiz-adv-x="785" 
d="M93 0v706h99v-310h367v310h98v-620h98v-226h-90v140h-106v310h-367v-310h-99z" />
    <glyph glyph-name="uni04A3" unicode="&#x4a3;" horiz-adv-x="633" 
d="M75 0v506h97v-206h256v206h97v-422h85v-204h-89v120h-93v217h-256v-217h-97z" />
    <glyph glyph-name="uni04A4" unicode="&#x4a4;" horiz-adv-x="932" 
d="M93 0v706h99v-310h338v310h388v-86h-290v-620h-98v310h-338v-310h-99z" />
    <glyph glyph-name="uni04A5" unicode="&#x4a5;" horiz-adv-x="728" 
d="M75 0v506h97v-206h233v206h302v-83h-205v-423h-97v217h-233v-217h-97z" />
    <glyph glyph-name="uni04A6" unicode="&#x4a6;" horiz-adv-x="997" 
d="M93 0v706h490v-304q62 29 136 29q241 0 241 -294q0 -315 -255 -315v81q153 0 153 234q0 112 -38 162t-120 50q-51 0 -117 -28v-321h-98v621h-293v-621h-99z" />
    <glyph glyph-name="uni04A7" unicode="&#x4a7;" horiz-adv-x="816" 
d="M75 0v506h397v-214q54 26 112 26q98 0 149.5 -65.5t51.5 -164.5q0 -193 -151 -295l-47 68q104 71 104 223q0 151 -122 151q-54 0 -97 -26v-209h-97v423h-203v-423h-97z" />
    <glyph glyph-name="uni04A8" unicode="&#x4a8;" horiz-adv-x="936" 
d="M51 364q0 75 23.5 139t61.5 106t80 69.5t86 39.5l34 -89q-76 -26 -130.5 -94.5t-54.5 -173.5q0 -118 68.5 -200t191.5 -82q56 0 110 17q-74 55 -115.5 135t-41.5 178q0 137 77 217t184 80q112 0 183 -78t71 -212q0 -91 -46 -174.5t-125 -145.5q54 -14 115 -14h47v-82h-48
q-105 0 -202 39q-100 -51 -210 -51q-158 0 -258.5 103.5t-100.5 272.5zM466 410q0 -87 37.5 -158t106.5 -114q76 48 121.5 121.5t45.5 155.5q0 98 -43.5 149.5t-109.5 51.5q-62 0 -110 -53t-48 -153z" />
    <glyph glyph-name="uni04A9" unicode="&#x4a9;" horiz-adv-x="782" 
d="M43 261q0 101 55 166.5t128 90.5l33 -79q-51 -21 -87.5 -67.5t-36.5 -112.5q0 -81 50.5 -136t150.5 -55q44 0 87 12q-120 86 -120 223q0 91 61 153t156 62q94 0 151 -57t57 -146q0 -129 -125 -231q35 -7 78 -7h53v-77h-49q-87 0 -168 30q-87 -42 -182 -42q-138 0 -215 77
t-77 196zM395 305q0 -61 31 -109.5t86 -78.5q56 33 90 83t34 110q0 61 -32 96t-86 35q-53 0 -88 -38.5t-35 -97.5z" />
    <glyph glyph-name="uni04AA" unicode="&#x4aa;" horiz-adv-x="717" 
d="M50 357q0 155 101.5 258t257.5 103q161 0 258 -93l-50 -74q-39 35 -94.5 56t-109.5 21q-120 0 -190.5 -77t-70.5 -193q0 -117 72 -198t191 -81q59 0 116.5 24.5t100.5 67.5l53 -71q-100 -100 -239 -110v-130h-90v132q-139 18 -222.5 119.5t-83.5 245.5z" />
    <glyph glyph-name="uni04AB" unicode="&#x4ab;" horiz-adv-x="546" 
d="M42 253q0 113 76.5 189t194.5 76q120 0 190 -74l-46 -68q-58 58 -140 58q-76 0 -126 -51.5t-50 -128.5q0 -78 50.5 -130t128.5 -52q42 0 84.5 18.5t71.5 49.5l39 -71q-63 -66 -169 -79v-110h-87v113q-98 16 -157.5 87.5t-59.5 172.5z" />
    <glyph glyph-name="uni04AC" unicode="&#x4ac;" horiz-adv-x="617" 
d="M256 0l1 2v618h-243v86h584v-86h-243v-534h98v-226h-90v140h-107z" />
    <glyph glyph-name="uni04AD" unicode="&#x4ad;" horiz-adv-x="496" 
d="M197 0v423h-176v83h449v-83h-177v-339h85v-204h-89v120h-92z" />
    <glyph glyph-name="uni04AE" unicode="&#x4ae;" horiz-adv-x="580" 
d="M241 0v299l-237 407h112l130 -232l43 -89h2q21 48 43 89l130 232h112l-237 -407v-299h-98z" />
    <glyph glyph-name="uni04AF" unicode="&#x4af;" horiz-adv-x="526" 
d="M215 23l-197 483h102l123 -314l19 -67h2q8 38 19 67l123 314h102l-197 -483v-223h-96v223z" />
    <glyph glyph-name="uni04B0" unicode="&#x4b0;" horiz-adv-x="580" 
d="M119 233v73h118l-233 400h112l130 -232l43 -89h2q21 48 43 89l130 232h112l-233 -400h120v-73h-124v-233h-98v233h-122z" />
    <glyph glyph-name="uni04B1" unicode="&#x4b1;" horiz-adv-x="525" 
d="M99 0v71h96l-177 435h103l122 -314l19 -67h2q8 38 19 67l121 314h102l-176 -435h98v-71h-117v-200h-96v200h-116z" />
    <glyph glyph-name="uni04B2" unicode="&#x4b2;" horiz-adv-x="643" 
d="M16 0l222 364l-208 342h113l111 -191l45 -84h2q20 45 43 84l112 191h114l-210 -342l170 -278h99v-226h-90v140h-67l-129 217l-44 81h-2q-21 -42 -43 -81l-128 -217h-110z" />
    <glyph glyph-name="uni04B3" unicode="&#x4b3;" horiz-adv-x="533" 
d="M17 0l173 260l-163 246h111l94 -154l16 -30h2q10 17 17 30l94 154h111l-163 -246l117 -176h86v-204h-89v120h-51l-106 169l-16 27h-2q-7 -15 -15 -27l-106 -169h-110z" />
    <glyph glyph-name="uni04B4" unicode="&#x4b4;" horiz-adv-x="902" 
d="M229 0v620h-212v86h522v-86h-212v-534h353v620h98v-620h91v-226h-89v140h-551z" />
    <glyph glyph-name="uni04B5" unicode="&#x4b5;" horiz-adv-x="732" 
d="M177 0v423h-155v83h409v-83h-157v-339h259v422h97v-422h75v-203h-89v119h-439z" />
    <glyph glyph-name="uni04B6" unicode="&#x4b6;" horiz-adv-x="673" 
d="M264 271q-107 0 -160 53t-53 153v229h100v-208q0 -68 32 -102.5t102 -34.5q88 0 160 48v297h100v-620h97v-226h-89v140h-108v286l2 33h-2q-91 -48 -181 -48z" />
    <glyph glyph-name="uni04B7" unicode="&#x4b7;" horiz-adv-x="559" 
d="M213 176q-82 0 -126 42.5t-44 122.5v165h95v-151q0 -43 22 -69t79 -26q62 0 112 36v210h97v-422h88v-204h-88v120h-97v183l1 30h-2q-59 -37 -137 -37z" />
    <glyph glyph-name="uni04B8" unicode="&#x4b8;" horiz-adv-x="654" 
d="M271 168v106q-112 0 -167 53t-55 153v226h100v-208q0 -65 29 -98.5t93 -37.5v140h74v-136q68 13 115 43v297h100v-706h-100v289l2 33h-2q-51 -27 -115 -40v-114h-74z" />
    <glyph glyph-name="uni04B9" unicode="&#x4b9;" horiz-adv-x="547" 
d="M221 178q-85 0 -131.5 42t-46.5 121v165h95v-151q0 -84 86 -94v122h71v-119q46 9 81 32v210h97v-506h-97v187l2 30h-2q-34 -19 -81 -30v-88h-71v79h-3z" />
    <glyph glyph-name="uni04BA" unicode="&#x4ba;" horiz-adv-x="627" 
d="M93 0v706h99v-261l-2 -33h2q87 46 184 46q100 0 149 -55.5t49 -153.5v-249h-100v233q0 137 -124 137q-88 0 -158 -46v-324h-99z" />
    <glyph glyph-name="uni04BB" unicode="&#x4bb;" horiz-adv-x="603" 
d="M75 0v706h97v-262l-4 -42h2q21 44 71 80t119 36q173 0 173 -194v-324h-97v302q0 61 -19.5 94t-75.5 33q-73 0 -121 -53.5t-48 -135.5v-240h-97z" />
    <glyph glyph-name="uni04BC" unicode="&#x4bc;" horiz-adv-x="876" 
d="M38 514q0 48 8 83l8 39h90l-8 -40q-8 -37 -8 -73q0 -44 19.5 -72.5t60.5 -28.5h4q20 133 108 214.5t212 81.5q134 0 213 -88.5t79 -239.5l-3 -47h-511q2 -121 72.5 -192.5t172.5 -71.5q53 0 105 19.5t74.5 35t36.5 28.5l48 -76q-110 -98 -274 -98q-144 0 -240 99.5
t-98 256.5h-3q-78 0 -122 44t-44 126zM313 422h410q0 88 -48.5 148t-142.5 60q-90 0 -149 -61t-70 -147z" />
    <glyph glyph-name="uni04BD" unicode="&#x4bd;" horiz-adv-x="680" 
d="M33 390q0 38 12 74h80q-12 -32 -12 -69q0 -81 57 -84q17 95 85.5 151t163.5 56q103 0 160.5 -67.5t57.5 -169.5l-3 -41h-369q4 -79 54 -123.5t121 -44.5q38 0 75.5 15t55.5 29l18 15l40 -71q-9 -8 -24.5 -20t-66.5 -32t-104 -20q-115 0 -189.5 71.5t-79.5 180.5
q-132 0 -132 150zM268 310h271q-2 62 -36.5 96.5t-86.5 34.5q-56 0 -97 -35t-51 -96z" />
    <glyph glyph-name="uni04BE" unicode="&#x4be;" horiz-adv-x="877" 
d="M38 514q0 48 8 83l8 39h90l-8 -40q-8 -37 -8 -73q0 -44 19.5 -72.5t60.5 -28.5h4q20 133 108 214.5t212 81.5q134 0 213 -88.5t79 -239.5l-3 -47h-511q2 -121 72.5 -192.5t172.5 -71.5q53 0 105 19.5t74.5 35t36.5 28.5l48 -76q-98 -87 -241 -97v-129h-90v133
q-123 19 -201 114.5t-80 236.5h-3q-78 0 -122 44t-44 126zM313 422h410q0 88 -48.5 148t-142.5 60q-90 0 -149 -61t-70 -147z" />
    <glyph glyph-name="uni04BF" unicode="&#x4bf;" horiz-adv-x="680" 
d="M33 390q0 38 12 74h80q-12 -32 -12 -69q0 -81 57 -84q17 95 85.5 151t163.5 56q103 0 160.5 -67.5t57.5 -169.5l-3 -41h-369q4 -79 54 -123.5t121 -44.5q38 0 75.5 15t55.5 29l18 15l40 -71q-8 -7 -22 -18t-59.5 -30.5t-93.5 -22.5v-109h-87v116q-88 19 -143 85.5
t-59 158.5q-132 0 -132 150zM268 310h271q-2 62 -36.5 96.5t-86.5 34.5q-56 0 -97 -35t-51 -96z" />
    <glyph glyph-name="uni04C0" unicode="&#x4c0;" horiz-adv-x="285" 
d="M93 0v706h98v-706h-98z" />
    <glyph glyph-name="uni04C1" unicode="&#x4c1;" horiz-adv-x="892" 
d="M18 0l205 369v2l-191 335h108l165 -297h92v297h98v-297h93l164 297h108l-191 -335v-2l206 -369h-112l-175 323h-93v-323h-98v323h-92l-176 -323h-111zM448 739q-61 0 -104.5 34.5t-43.5 93.5v15h78v-14q0 -31 21 -48.5t49 -17.5q29 0 50 17.5t21 49.5v13h77v-15
q0 -59 -43 -93.5t-105 -34.5z" />
    <glyph glyph-name="uni04C2" unicode="&#x4c2;" horiz-adv-x="752" 
d="M17 0l163 260v2l-149 244h103l124 -207h72v207h92v-207h72l125 207h102l-148 -244v-2l163 -260h-109l-132 216h-73v-216h-92v216h-72l-133 -216h-108zM375 564q-61 0 -104.5 34.5t-43.5 93.5v15h78v-14q0 -31 21 -48.5t49 -17.5q29 0 50 17.5t21 49.5v13h77v-15
q0 -59 -43 -93.5t-105 -34.5z" />
    <glyph glyph-name="uni04C3" unicode="&#x4c3;" horiz-adv-x="636" 
d="M93 0v706h99v-297h105l179 297h109l-193 -315q98 -25 146 -99.5t48 -168.5q0 -139 -67 -220t-180 -81v83q61 0 102.5 50t41.5 162q0 104 -58.5 156t-162.5 52h-70v-325h-99z" />
    <glyph glyph-name="uni04C4" unicode="&#x4c4;" horiz-adv-x="528" 
d="M75 0v506h97v-205h70l139 205h110l-159 -227v-2q154 -46 154 -224q0 -93 -44.5 -158.5t-108.5 -101.5l-46 70q105 55 105 190q0 80 -45 122t-128 42h-47v-217h-97z" />
    <glyph glyph-name="uni04C5" unicode="&#x4c5;" horiz-adv-x="717" 
d="M12 83q87 12 124 123t37 333v167h412v-620h109v-57l-72 -169h-73l43 140h-106v620h-219v-82q0 -268 -57.5 -403t-197.5 -143v91z" />
    <glyph glyph-name="uni04C6" unicode="&#x4c6;" horiz-adv-x="586" 
d="M20 -5v87q57 9 85.5 71.5t28.5 196.5v156h339v-423h89v-55l-63 -148h-68l36 120h-91v426h-149v-76q0 -175 -48.5 -262t-158.5 -93z" />
    <glyph glyph-name="uni04C7" unicode="&#x4c7;" horiz-adv-x="750" 
d="M93 0v706h99v-310h367v310h98l1 -655q0 -58 -13.5 -102t-34.5 -68t-50 -38.5t-54.5 -18.5t-54.5 -3v84q108 0 108 143v262h-367v-310h-99z" />
    <glyph glyph-name="uni04C8" unicode="&#x4c8;" horiz-adv-x="601" 
d="M75 0v506h97v-206h256v206h98v-458q0 -99 -38 -155t-112 -100l-51 71q51 27 77 68.5t26 114.5v170h-256v-217h-97z" />
    <glyph glyph-name="uni04C9" unicode="&#x4c9;" horiz-adv-x="790" 
d="M93 0v706h99v-310h367v310h98v-620h110v-57l-73 -169h-72l42 140h-105v310h-367v-310h-99z" />
    <glyph glyph-name="uni04CA" unicode="&#x4ca;" horiz-adv-x="638" 
d="M75 0v506h97v-206h256v206h97v-423h89v-55l-63 -148h-68l36 120h-91v217h-256v-217h-97z" />
    <glyph glyph-name="uni04CB" unicode="&#x4cb;" horiz-adv-x="638" 
d="M264 271q-107 0 -160 53t-53 153v229h100v-208q0 -68 32 -102.5t102 -34.5q88 0 160 48v297h100v-706h-109v-140h-89v226h98v200l2 33h-2q-91 -48 -181 -48z" />
    <glyph glyph-name="uni04CC" unicode="&#x4cc;" horiz-adv-x="526" 
d="M270 67h85v126l1 30h-1q-67 -38 -151 -38q-77 0 -119.5 42t-42.5 121v158h96v-145q0 -95 96 -95q67 0 121 37v203h97v-506h-93v-120h-89v187z" />
    <glyph glyph-name="uni04CD" unicode="&#x4cd;" horiz-adv-x="894" 
d="M66 0l58 706h103l163 -382l34 -95h2q19 56 35 95l163 382h103l50 -620h109v-57l-72 -169h-72l42 140h-98l-34 445l-2 104h-2q-22 -65 -38 -104l-141 -318h-88l-140 318l-38 106h-2q2 -63 -2 -106l-34 -445h-99z" />
    <glyph glyph-name="uni04CE" unicode="&#x4ce;" horiz-adv-x="773" 
d="M54 0l44 506h108l129 -286l28 -68h2l28 68l132 286h106l37 -423h92v-55l-63 -148h-69l36 120h-83l-22 301l1 87h-2q-13 -35 -32 -74l-120 -253h-83l-120 252l-32 75h-2l1 -87l-22 -301h-94z" />
    <glyph glyph-name="uni04CF" unicode="&#x4cf;" horiz-adv-x="246" 
d="M75 0v706h97v-706h-97z" />
    <glyph glyph-name="uni04D0" unicode="&#x4d0;" horiz-adv-x="641" 
d="M15 0l253 706h105l253 -706h-102l-71 203h-266l-71 -203h-101zM213 285h214l-78 223l-28 101h-2q-15 -64 -27 -101zM318 739q-61 0 -104.5 34.5t-43.5 93.5v15h78v-14q0 -31 21 -48.5t49 -17.5q29 0 50 17.5t21 49.5v13h77v-15q0 -59 -43 -93.5t-105 -34.5z" />
    <glyph glyph-name="uni04D1" unicode="&#x4d1;" horiz-adv-x="527" 
d="M33 138q0 56 31 94t82.5 54.5t95.5 22.5t93 6h26v10q0 111 -111 111q-73 0 -142 -49l-39 71q31 26 84 43t105 17q96 0 148 -51t52 -147v-320h-91v51l3 40h-2q-23 -45 -67.5 -74t-98.5 -29q-69 0 -119 41t-50 109zM130 146q0 -33 25 -57t70 -24q60 0 98 50t38 111v19h-25
q-206 0 -206 -99zM271 564q-61 0 -104.5 34.5t-43.5 93.5v15h78v-14q0 -31 21 -48.5t49 -17.5q29 0 50 17.5t21 49.5v13h77v-15q0 -59 -43 -93.5t-105 -34.5z" />
    <glyph glyph-name="uni04D2" unicode="&#x4d2;" horiz-adv-x="641" 
d="M15 0l253 706h105l253 -706h-102l-71 203h-266l-71 -203h-101zM213 285h214l-78 223l-28 101h-2q-15 -64 -27 -101zM364 781v101h79v-101h-79zM196 781v101h80v-101h-80z" />
    <glyph glyph-name="uni04D3" unicode="&#x4d3;" horiz-adv-x="527" 
d="M33 138q0 56 31 94t82.5 54.5t95.5 22.5t93 6h26v10q0 111 -111 111q-73 0 -142 -49l-39 71q31 26 84 43t105 17q96 0 148 -51t52 -147v-320h-91v51l3 40h-2q-23 -45 -67.5 -74t-98.5 -29q-69 0 -119 41t-50 109zM130 146q0 -33 25 -57t70 -24q60 0 98 50t38 111v19h-25
q-206 0 -206 -99zM305 606v101h79v-101h-79zM137 606v101h80v-101h-80z" />
    <glyph glyph-name="uni04D4" unicode="&#x4d4;" horiz-adv-x="876" 
d="M8 0l292 706h517v-86h-312v-221h253v-86h-253v-227h328v-86h-426v314h-171l-125 -314h-103zM269 396h138v224h-47z" />
    <glyph glyph-name="uni04D5" unicode="&#x4d5;" horiz-adv-x="863" 
d="M34 142q0 39 14.5 69t41.5 48t55 29.5t66.5 16.5t65 6.5t59.5 1.5h25v12q0 111 -114 111q-72 0 -140 -49l-39 71q32 27 83.5 43.5t101.5 16.5q128 0 169 -89h2q60 89 179 89q101 0 159 -67t58 -168q0 -13 -2 -41h-364q4 -81 51 -125.5t118 -44.5q84 0 150 58l40 -70
q-35 -32 -89 -52t-107 -20q-75 0 -131 33t-86 93h-2q-5 -14 -16.5 -31t-33 -40t-59 -38.5t-82.5 -15.5q-73 0 -123 41t-50 112zM458 313h264q-2 60 -36.5 93.5t-83.5 33.5q-57 0 -95.5 -33t-48.5 -94zM132 147q0 -34 25 -57.5t71 -23.5q59 0 96.5 50.5t37.5 111.5v14h-48
q-182 0 -182 -95z" />
    <glyph glyph-name="uni04D6" unicode="&#x4d6;" horiz-adv-x="564" 
d="M93 0v706h411v-86h-312v-221h253v-86h-253v-227h329v-86h-428zM303 739q-61 0 -104.5 34.5t-43.5 93.5v15h78v-14q0 -31 21 -48.5t49 -17.5q29 0 50 17.5t21 49.5v13h77v-15q0 -59 -43 -93.5t-105 -34.5z" />
    <glyph glyph-name="uni04D7" unicode="&#x4d7;" horiz-adv-x="557" 
d="M42 253q0 119 72 192t182 73q103 0 161 -67.5t58 -169.5q0 -13 -4 -41h-368q4 -79 53.5 -123.5t120.5 -44.5q83 0 149 59l41 -71q-36 -33 -89.5 -52.5t-106.5 -19.5q-118 0 -193.5 75.5t-75.5 189.5zM146 310h271q-2 63 -36.5 98t-86.5 35q-57 0 -97.5 -35.5t-50.5 -97.5
zM291 564q-61 0 -104.5 34.5t-43.5 93.5v15h78v-14q0 -31 21 -48.5t49 -17.5q29 0 50 17.5t21 49.5v13h77v-15q0 -59 -43 -93.5t-105 -34.5z" />
    <glyph glyph-name="uni04D8" unicode="&#x4d8;" horiz-adv-x="722" 
d="M51 339l3 50h513q-5 106 -69.5 172.5t-165.5 66.5q-54 0 -106 -18t-74.5 -32.5t-36.5 -26.5l-50 74q120 93 277 93q146 0 237.5 -103t91.5 -259q0 -161 -88 -264.5t-232 -103.5q-140 0 -220 91t-80 260zM151 310q0 -112 50.5 -172.5t154.5 -60.5q93 0 151 64t59 169h-415
z" />
    <glyph glyph-name="uni04D9" unicode="&#x4d9;" horiz-adv-x="557" 
d="M42 235l3 45h370q-4 71 -50.5 114.5t-112.5 43.5q-41 0 -81.5 -14t-60.5 -28l-19 -15l-39 69l8 6q9 5 15 9t19 11t25 12t29 11t34 10t38.5 6.5t42.5 2.5q113 0 182.5 -74.5t69.5 -189.5q0 -122 -70 -194t-178 -72t-166.5 68t-58.5 179zM143 210q2 -75 37 -110t89 -35
q58 0 99 37.5t43 107.5h-268z" />
    <glyph glyph-name="uni04DA" unicode="&#x4da;" horiz-adv-x="722" 
d="M398 781v101h79v-101h-79zM230 781v101h80v-101h-80zM51 339l3 50h513q-5 106 -69.5 172.5t-165.5 66.5q-54 0 -106 -18t-74.5 -32.5t-36.5 -26.5l-50 74q120 93 277 93q146 0 237.5 -103t91.5 -259q0 -161 -88 -264.5t-232 -103.5q-140 0 -220 91t-80 260zM151 310
q0 -112 50.5 -172.5t154.5 -60.5q93 0 151 64t59 169h-415z" />
    <glyph glyph-name="uni04DB" unicode="&#x4db;" horiz-adv-x="557" 
d="M309 606v101h79v-101h-79zM141 606v101h80v-101h-80zM42 235l3 45h370q-4 71 -50.5 114.5t-112.5 43.5q-41 0 -81.5 -14t-60.5 -28l-19 -15l-39 69l8 6q9 5 15 9t19 11t25 12t29 11t34 10t38.5 6.5t42.5 2.5q113 0 182.5 -74.5t69.5 -189.5q0 -122 -70 -194t-178 -72
t-166.5 68t-58.5 179zM143 210q2 -75 37 -110t89 -35q58 0 99 37.5t43 107.5h-268z" />
    <glyph glyph-name="uni04DC" unicode="&#x4dc;" horiz-adv-x="892" 
d="M18 0l205 369v2l-191 335h108l165 -297h92v297h98v-297h93l164 297h108l-191 -335v-2l206 -369h-112l-175 323h-93v-323h-98v323h-92l-176 -323h-111zM493 781v101h79v-101h-79zM325 781v101h80v-101h-80z" />
    <glyph glyph-name="uni04DD" unicode="&#x4dd;" horiz-adv-x="752" 
d="M420 606v101h79v-101h-79zM252 606v101h80v-101h-80zM17 0l163 260v2l-149 244h103l124 -207h72v207h92v-207h72l125 207h102l-148 -244v-2l163 -260h-109l-132 216h-73v-216h-92v216h-72l-133 -216h-108z" />
    <glyph glyph-name="uni04DE" unicode="&#x4de;" horiz-adv-x="546" 
d="M312 781v101h79v-101h-79zM144 781v101h80v-101h-80zM27 84l55 67q30 -32 74.5 -53t91.5 -21q66 0 106.5 34.5t40.5 93.5q0 54 -36.5 85.5t-95.5 31.5h-87v82h70q54 0 90.5 32t36.5 82q0 49 -31.5 81t-93.5 32q-87 0 -158 -60l-42 74q88 73 214 73q93 0 152.5 -50.5
t59.5 -137.5q0 -108 -102 -159v-2q57 -16 90.5 -60.5t33.5 -108.5q0 -96 -68.5 -154t-171.5 -58q-65 0 -126.5 25.5t-102.5 70.5z" />
    <glyph glyph-name="uni04DF" unicode="&#x4df;" horiz-adv-x="448" 
d="M262 606v101h79v-101h-79zM94 606v101h80v-101h-80zM26 62l45 64q57 -60 132 -60q46 0 75.5 21.5t29.5 61.5q0 77 -104 77h-62v70h53q96 0 96 73q0 35 -24 54t-66 19q-64 0 -123 -44l-36 65q74 55 176 55q75 0 123 -36t48 -101q0 -84 -74 -115v-2q91 -29 91 -119
q0 -75 -55.5 -116t-138.5 -41q-108 0 -186 74z" />
    <glyph glyph-name="uni04E0" unicode="&#x4e0;" horiz-adv-x="527" 
d="M68 123q31 -22 75 -36.5t84 -14.5q70 0 112.5 36t42.5 94q0 50 -26.5 78t-85.5 36q-19 2 -153 2v66l184 201q9 10 20 19.5t17 13.5l6 5v2q-27 -2 -61 -2h-233v83h408v-75l-196 -209l-29 -25v-2q63 -1 91 -8q154 -28 154 -181q0 -99 -69.5 -157.5t-177.5 -58.5t-198 60z
" />
    <glyph glyph-name="uni04E1" unicode="&#x4e1;" horiz-adv-x="487" 
d="M44 -77q31 -22 75 -36.5t84 -14.5q70 0 112.5 36t42.5 94q0 50 -26.5 78t-85.5 36q-19 2 -153 2v66l184 201q9 10 20 19.5t17 13.5l6 5v2q-27 -2 -61 -2h-233v83h408v-75l-196 -209l-29 -25v-2q63 -1 91 -8q154 -28 154 -181q0 -99 -69.5 -157.5t-177.5 -58.5t-198 60z
" />
    <glyph glyph-name="uni04E2" unicode="&#x4e2;" horiz-adv-x="752" 
d="M257 784v71h254v-71h-254zM93 0v706h99v-458l-6 -103h2q35 66 60 104l313 457h97v-706h-98v458l6 103h-2q-34 -64 -59 -103l-315 -458h-97z" />
    <glyph glyph-name="uni04E3" unicode="&#x4e3;" horiz-adv-x="598" 
d="M75 0v506h93v-302q0 -53 -3 -68h2q5 12 45 68l218 302h94v-506h-94v302q0 14 1.5 39.5t1.5 27.5h-2q-1 -2 -44 -67l-219 -302h-93zM176 609v71h254v-71h-254z" />
    <glyph glyph-name="uni04E4" unicode="&#x4e4;" horiz-adv-x="752" 
d="M421 781v101h79v-101h-79zM253 781v101h80v-101h-80zM93 0v706h99v-458l-6 -103h2q35 66 60 104l313 457h97v-706h-98v458l6 103h-2q-34 -64 -59 -103l-315 -458h-97z" />
    <glyph glyph-name="uni04E5" unicode="&#x4e5;" horiz-adv-x="598" 
d="M347 606v101h79v-101h-79zM179 606v101h80v-101h-80zM75 0v506h93v-302q0 -53 -3 -68h2q5 12 45 68l218 302h94v-506h-94v302q0 14 1.5 39.5t1.5 27.5h-2q-1 -2 -44 -67l-219 -302h-93z" />
    <glyph glyph-name="uni04E6" unicode="&#x4e6;" horiz-adv-x="823" 
d="M454 781v101h79v-101h-79zM286 781v101h80v-101h-80zM49 358q0 153 103 256.5t260 103.5q156 0 259 -103.5t103 -256.5q0 -157 -103 -263.5t-259 -106.5t-259.5 106.5t-103.5 263.5zM151 358q0 -119 74 -199t187 -80q112 0 186 80t74 199q0 115 -74 192.5t-186 77.5
q-113 0 -187 -77.5t-74 -192.5z" />
    <glyph glyph-name="uni04E7" unicode="&#x4e7;" horiz-adv-x="629" 
d="M360 606v101h79v-101h-79zM192 606v101h80v-101h-80zM42 254q0 113 79 188.5t193 75.5q115 0 194 -75t79 -189t-79 -190t-193 -76t-193.5 76t-79.5 190zM141 254q0 -79 50.5 -130.5t123.5 -51.5q72 0 123 52t51 130t-51 129t-123 51q-73 0 -123.5 -51t-50.5 -129z" />
    <glyph glyph-name="uni04E8" unicode="&#x4e8;" horiz-adv-x="823" 
d="M49 358q0 153 104 256.5t259 103.5t258.5 -103.5t103.5 -256.5q0 -157 -103.5 -263.5t-258.5 -106.5t-259 106.5t-104 263.5zM412 76q102 0 174.5 68t85.5 173h-521q14 -105 86.5 -173t174.5 -68zM412 630q-102 0 -175 -66t-86 -168h521q-13 102 -86 168t-174 66z" />
    <glyph glyph-name="uni04E9" unicode="&#x4e9;" horiz-adv-x="629" 
d="M42 254q0 113 79 188.5t193 75.5q115 0 194 -75t79 -189t-79 -190t-193 -76t-193.5 76t-79.5 190zM315 63q69 0 119.5 45t60.5 117h-360q9 -72 60 -117t120 -45zM315 443q-69 0 -119.5 -43.5t-60.5 -112.5h359q-10 69 -60.5 112.5t-118.5 43.5z" />
    <glyph glyph-name="uni04EA" unicode="&#x4ea;" horiz-adv-x="823" 
d="M49 358q0 153 104 256.5t259 103.5t258.5 -103.5t103.5 -256.5q0 -157 -103.5 -263.5t-258.5 -106.5t-259 106.5t-104 263.5zM412 76q102 0 174.5 68t85.5 173h-521q14 -105 86.5 -173t174.5 -68zM412 630q-102 0 -175 -66t-86 -168h521q-13 102 -86 168t-174 66z
M288 781v101h80v-101h-80zM456 781v101h79v-101h-79z" />
    <glyph glyph-name="uni04EB" unicode="&#x4eb;" horiz-adv-x="629" 
d="M42 254q0 113 79 188.5t193 75.5q115 0 194 -75t79 -189t-79 -190t-193 -76t-193.5 76t-79.5 190zM315 63q69 0 119.5 45t60.5 117h-360q9 -72 60 -117t120 -45zM315 443q-69 0 -119.5 -43.5t-60.5 -112.5h359q-10 69 -60.5 112.5t-118.5 43.5zM189 606v101h80v-101h-80z
M357 606v101h79v-101h-79z" />
    <glyph glyph-name="uni04EC" unicode="&#x4ec;" horiz-adv-x="716" 
d="M370 781v101h79v-101h-79zM202 781v101h80v-101h-80zM33 96l52 69q38 -39 97.5 -63t122.5 -24q104 0 174.5 67t82.5 168h-369v82h370q-10 102 -81 167.5t-176 65.5q-118 0 -209 -79l-49 74q46 46 116 70.5t144 24.5q159 0 259 -103t100 -257q0 -158 -102.5 -264
t-259.5 -106q-79 0 -150 29t-122 79z" />
    <glyph glyph-name="uni04ED" unicode="&#x4ed;" horiz-adv-x="544" 
d="M298 606v101h79v-101h-79zM130 606v101h80v-101h-80zM30 64l38 69q64 -65 159 -65q70 0 119.5 41.5t59.5 108.5h-242v70h242q-10 68 -59 109.5t-117 41.5q-84 0 -146 -59l-44 67q32 35 84.5 53t108.5 18q117 0 192.5 -75.5t75.5 -189.5q0 -115 -75.5 -190t-194.5 -75
q-122 0 -201 76z" />
    <glyph glyph-name="uni04EE" unicode="&#x4ee;" horiz-adv-x="599" 
d="M174 784v71h254v-71h-254zM75 34l45 75q46 -35 81 -35q29 0 46.5 19.5t33.5 59.5l-279 553h109l172 -355l40 -93h2q15 49 30 92l131 356h104l-225 -576q-56 -142 -161 -142q-63 0 -129 46z" />
    <glyph glyph-name="uni04EF" unicode="&#x4ef;" horiz-adv-x="535" 
d="M50 -105q28 -22 58 -22q61 0 92 75l25 58l-212 500h109l127 -331l19 -61h2q8 34 17 60l123 332h105l-238 -597q-22 -58 -65.5 -88.5t-98.5 -30.5q-25 0 -49 8t-36 16l-12 7zM141 609v71h254v-71h-254z" />
    <glyph glyph-name="uni04F0" unicode="&#x4f0;" horiz-adv-x="599" 
d="M349 781v101h79v-101h-79zM181 781v101h80v-101h-80zM75 34l45 75q46 -35 81 -35q29 0 46.5 19.5t33.5 59.5l-279 553h109l172 -355l40 -93h2q15 49 30 92l131 356h104l-225 -576q-56 -142 -161 -142q-63 0 -129 46z" />
    <glyph glyph-name="uni04F1" unicode="&#x4f1;" horiz-adv-x="535" 
d="M50 -105q28 -22 58 -22q61 0 92 75l25 58l-212 500h109l127 -331l19 -61h2q8 34 17 60l123 332h105l-238 -597q-22 -58 -65.5 -88.5t-98.5 -30.5q-25 0 -49 8t-36 16l-12 7zM312 606v101h79v-101h-79zM144 606v101h80v-101h-80z" />
    <glyph glyph-name="uni04F2" unicode="&#x4f2;" horiz-adv-x="599" 
d="M75 34l45 75q46 -35 81 -35q29 0 46.5 19.5t33.5 59.5l-279 553h109l172 -355l40 -93h2q15 49 30 92l131 356h104l-225 -576q-56 -142 -161 -142q-63 0 -129 46zM336 755l73 127h101l-96 -127h-78zM182 755l68 127h88l-71 -127h-85z" />
    <glyph glyph-name="uni04F3" unicode="&#x4f3;" horiz-adv-x="535" 
d="M50 -105q28 -22 58 -22q61 0 92 75l25 58l-212 500h109l127 -331l19 -61h2q8 34 17 60l123 332h105l-238 -597q-22 -58 -65.5 -88.5t-98.5 -30.5q-25 0 -49 8t-36 16l-12 7zM295 580l73 127h101l-96 -127h-78zM141 580l68 127h88l-71 -127h-85z" />
    <glyph glyph-name="uni04F4" unicode="&#x4f4;" horiz-adv-x="639" 
d="M264 271q-107 0 -160 53t-53 153v229h100v-208q0 -68 32 -102.5t102 -34.5q88 0 160 48v297h100v-706h-100v286l2 33h-2q-91 -48 -181 -48zM349 781v101h79v-101h-79zM181 781v101h80v-101h-80z" />
    <glyph glyph-name="uni04F5" unicode="&#x4f5;" horiz-adv-x="523" 
d="M295 606v101h79v-101h-79zM127 606v101h80v-101h-80zM213 176q-82 0 -126 42.5t-44 122.5v165h95v-151q0 -43 22 -69t79 -26q62 0 112 36v210h97v-506h-97v183l1 30h-2q-59 -37 -137 -37z" />
    <glyph glyph-name="uni04F6" unicode="&#x4f6;" horiz-adv-x="499" 
d="M93 0v706h389v-86h-290v-534h98v-226h-90v140h-107z" />
    <glyph glyph-name="uni04F7" unicode="&#x4f7;" horiz-adv-x="416" 
d="M75 0v506h317v-83h-220v-339h84v-204h-88v120h-93z" />
    <glyph glyph-name="uni04F8" unicode="&#x4f8;" horiz-adv-x="844" 
d="M466 781v101h79v-101h-79zM298 781v101h80v-101h-80zM652 0v706h98v-706h-98zM93 0v706h99v-266h145q95 0 155 -59.5t60 -162.5q0 -98 -58.5 -158t-151.5 -60h-249zM192 86h134q59 0 92.5 35t33.5 97t-34.5 99t-93.5 37h-132v-268z" />
    <glyph glyph-name="uni04F9" unicode="&#x4f9;" horiz-adv-x="705" 
d="M395 606v101h79v-101h-79zM227 606v101h80v-101h-80zM533 0v506h97v-506h-97zM75 0v506h97v-183h99q84 0 134 -40.5t50 -122.5q0 -74 -46.5 -117t-138.5 -43h-195zM172 70h85q50 0 75 24.5t25 66.5t-25 67t-76 25h-84v-183z" />
    <glyph glyph-name="uni0524" unicode="&#x524;" horiz-adv-x="777" 
d="M93 0v706h556v-620h98v-226h-90v140h-107v620h-358v-620h-99z" />
    <glyph glyph-name="uni0525" unicode="&#x525;" horiz-adv-x="625" 
d="M75 0v506h442v-422h85v-204h-89v120h-93v423h-248v-423h-97z" />
    <glyph glyph-name="uni1E9E" unicode="&#x1e9e;" horiz-adv-x="676" 
d="M87 0v506q0 86 57.5 143t145.5 57h310v-68l-138 -202l-25 -33v-2l25 -1q73 -6 120.5 -63.5t47.5 -131.5q0 -85 -61.5 -145t-147.5 -60h-149v86h142q51 0 83 34.5t32 84.5q0 49 -31.5 83t-81.5 34h-88v69l113 169q13 20 24 35t16 20l5 5v2q-8 -2 -44 -2h-148
q-47 0 -77 -32t-30 -80v-508h-100z" />
    <glyph glyph-name="thinspace" unicode="&#x2009;" horiz-adv-x="14" 
 />
    <glyph glyph-name="endash" unicode="&#x2013;" horiz-adv-x="669" 
d="M72 246v78h525v-78h-525z" />
    <glyph glyph-name="emdash" unicode="&#x2014;" horiz-adv-x="869" 
d="M72 246v78h725v-78h-725z" />
    <glyph glyph-name="quoteleft" unicode="&#x2018;" horiz-adv-x="250" 
d="M60 523l65 194h72l-43 -194h-94z" />
    <glyph glyph-name="quoteright" unicode="&#x2019;" horiz-adv-x="244" 
d="M64 523l42 194h95l-66 -194h-71z" />
    <glyph glyph-name="quotesinglbase" unicode="&#x201a;" horiz-adv-x="258" 
d="M50 -89l43 194h91l-64 -194h-70z" />
    <glyph glyph-name="quotedblleft" unicode="&#x201c;" horiz-adv-x="391" 
d="M201 523l65 194h72l-43 -194h-94zM60 523l65 194h72l-43 -194h-94z" />
    <glyph glyph-name="quotedblright" unicode="&#x201d;" 
d="M205 523l42 194h95l-65 -194h-72zM64 523l42 194h95l-65 -194h-72z" />
    <glyph glyph-name="quotedblbase" unicode="&#x201e;" horiz-adv-x="396" 
d="M188 -89l43 194h92l-65 -194h-70zM50 -89l43 194h91l-64 -194h-70z" />
    <glyph glyph-name="dagger" unicode="&#x2020;" horiz-adv-x="426" 
d="M165 -50v478h-121v78h121v200h94v-200h123v-78h-123v-478h-94z" />
    <glyph glyph-name="daggerdbl" unicode="&#x2021;" horiz-adv-x="453" 
d="M58 171v78h120v179h-120v78h120v200h94v-200h123v-78h-123v-179h123v-78h-123v-221h-94v221h-120z" />
    <glyph glyph-name="bullet" unicode="&#x2022;" horiz-adv-x="476" 
d="M238 136q-64 0 -109 45.5t-45 109.5t45 109.5t109 45.5t109.5 -45.5t45.5 -109.5t-45.5 -109.5t-109.5 -45.5z" />
    <glyph glyph-name="ellipsis" unicode="&#x2026;" horiz-adv-x="761" 
d="M589 0v105h102v-105h-102zM330 0v105h101v-105h-101zM70 0v105h101v-105h-101z" />
    <glyph glyph-name="perthousand" unicode="&#x2030;" horiz-adv-x="1106" 
d="M202 422q-62 0 -106.5 43.5t-44.5 104.5t44.5 104.5t106.5 43.5q64 0 108.5 -43.5t44.5 -104.5q0 -62 -44.5 -105t-108.5 -43zM67 0l539 706h95l-540 -706h-94zM202 496q32 0 53.5 21.5t21.5 52.5t-22 53t-53 22t-52 -22t-21 -53t21 -52.5t52 -21.5zM768 135
q0 61 44.5 105t106.5 44q63 0 108 -44t45 -105t-45 -104t-108 -43q-62 0 -106.5 43t-44.5 104zM414 135q0 62 44 105.5t107 43.5t107.5 -43.5t44.5 -105.5q0 -61 -44.5 -104t-107.5 -43t-107 43t-44 104zM846 136q0 -31 21 -52.5t52 -21.5t53 21.5t22 52.5t-22 53t-53 22
t-52 -22t-21 -53zM492 136q0 -31 21 -52.5t52 -21.5t52.5 21.5t21.5 52.5t-21.5 53t-52.5 22t-52 -22t-21 -53z" />
    <glyph glyph-name="guilsinglleft" unicode="&#x2039;" horiz-adv-x="359" 
d="M209 77l-164 205l164 206h97l-164 -206l164 -205h-97z" />
    <glyph glyph-name="guilsinglright" unicode="&#x203a;" horiz-adv-x="359" 
d="M53 77l164 205l-164 206h97l164 -206l-164 -205h-97z" />
    <glyph glyph-name="fraction" unicode="&#x2044;" horiz-adv-x="169" 
d="M-45 0h-75l336 706h74z" />
    <glyph glyph-name="zerosuperior" unicode="&#x2070;" 
d="M193 413q-157 0 -157 229q0 228 157 228t157 -228q0 -229 -157 -229zM193 482q81 0 81 160q0 159 -81 159q-82 0 -82 -159q0 -160 82 -160z" />
    <glyph glyph-name="foursuperior" unicode="&#x2074;" 
d="M226 423v107h-207v50l200 280h81v-264h62v-66h-62v-107h-74zM100 596h126v123l3 58h-2q-13 -27 -29 -48l-98 -131v-2z" />
    <glyph glyph-name="fivesuperior" unicode="&#x2075;" 
d="M183 413q-89 0 -143 68l44 51q14 -22 40.5 -36t53.5 -14q37 0 63.5 23.5t26.5 58.5t-26.5 59t-64.5 24q-41 0 -75 -21l-42 16l24 218h231v-67h-170l-7 -62l-5 -32h2q27 10 56 10q66 0 109 -43t43 -103q0 -61 -45 -105.5t-115 -44.5z" />
    <glyph glyph-name="sixsuperior" unicode="&#x2076;" 
d="M204 413q-72 0 -118 55.5t-46 147.5q0 61 19.5 117t66 96.5t111.5 40.5q52 0 93 -22l-25 -63q-30 16 -65 16q-46 0 -76 -36t-40 -90h2q31 31 79 31q66 0 106 -40.5t40 -102.5q0 -67 -41 -108.5t-106 -41.5zM204 482q34 0 53 23.5t19 58.5q0 36 -22 60t-59 24
q-31 0 -54.5 -16.5t-23.5 -36.5q0 -42 25 -77.5t62 -35.5z" />
    <glyph glyph-name="sevensuperior" unicode="&#x2077;" 
d="M60 423l175 323l29 47v2q-19 -2 -45 -2h-171v67h302v-51l-207 -386h-83z" />
    <glyph glyph-name="eightsuperior" unicode="&#x2078;" 
d="M193 413q-64 0 -111 36t-47 100q0 63 71 113q-49 35 -49 91q0 55 41.5 86t98.5 31t100 -31.5t43 -87.5t-56 -112q64 -38 64 -99q0 -56 -45.5 -91.5t-109.5 -35.5zM231 665q37 41 37 82q0 27 -21.5 42t-50.5 15q-28 0 -47.5 -13.5t-19.5 -40.5q0 -19 14.5 -35t30.5 -24.5
t45 -20.5q8 -3 12 -5zM193 478q31 0 55.5 18.5t24.5 46.5q0 13 -6 24t-20 21t-24.5 15.5t-33 15.5t-32.5 15q-49 -37 -49 -82q0 -34 25.5 -54t59.5 -20z" />
    <glyph glyph-name="ninesuperior" unicode="&#x2079;" 
d="M56 435l25 64q30 -16 65 -16q45 0 76 35.5t40 89.5h-2q-31 -31 -79 -31q-66 0 -106 40.5t-40 102.5q0 66 41 108t105 42q72 0 118.5 -55.5t46.5 -147.5q0 -97 -51.5 -175.5t-145.5 -78.5q-54 0 -93 22zM190 634q31 0 54.5 17t23.5 37q0 42 -25 77.5t-62 35.5
q-33 0 -52.5 -23.5t-19.5 -57.5q0 -37 22 -61.5t59 -24.5z" />
    <glyph glyph-name="zeroinferior" unicode="&#x2080;" 
d="M193 -167q-157 0 -157 229q0 228 157 228t157 -228q0 -229 -157 -229zM193 -98q81 0 81 160q0 159 -81 159q-82 0 -82 -159q0 -160 82 -160z" />
    <glyph glyph-name="oneinferior" unicode="&#x2081;" 
d="M72 -157v66h93v249l2 26h-2q-4 -9 -17 -22l-36 -34l-45 49l106 103h67v-371h92v-66h-260z" />
    <glyph glyph-name="twoinferior" unicode="&#x2082;" 
d="M47 -157q-3 18 -3 36q0 47 22 83.5t53 59t62 42t53 42.5t22 50q0 28 -20.5 46.5t-51.5 18.5q-45 0 -85 -48l-49 45q21 31 58.5 51.5t78.5 20.5q62 0 103 -36.5t41 -94.5q0 -40 -20.5 -72t-50 -52.5t-59.5 -38.5t-52 -39.5t-24 -47.5h213v-66h-291z" />
    <glyph glyph-name="threeinferior" unicode="&#x2083;" 
d="M182 -167q-42 0 -82 17t-65 49l42 53q15 -21 43 -35.5t59 -14.5q34 0 58.5 22t24.5 54q0 33 -26 52t-62 19h-34l-17 38l89 103l25 24v2q-19 -3 -37 -3h-141v67h271v-48l-109 -126q50 -7 83.5 -39.5t33.5 -88.5q0 -59 -44 -102t-112 -43z" />
    <glyph glyph-name="fourinferior" unicode="&#x2084;" 
d="M226 -157v107h-207v50l200 280h81v-264h62v-66h-62v-107h-74zM100 16h126v123l3 58h-2q-13 -27 -29 -48l-98 -131v-2z" />
    <glyph glyph-name="fiveinferior" unicode="&#x2085;" 
d="M183 -167q-89 0 -143 68l44 51q14 -22 40.5 -36t53.5 -14q37 0 63.5 23.5t26.5 58.5t-26.5 59t-64.5 24q-41 0 -75 -21l-42 16l24 218h231v-67h-170l-7 -62l-5 -32h2q27 10 56 10q66 0 109 -43t43 -103q0 -61 -45 -105.5t-115 -44.5z" />
    <glyph glyph-name="sixinferior" unicode="&#x2086;" 
d="M204 -167q-72 0 -118 55.5t-46 147.5q0 61 19.5 117t66 96.5t111.5 40.5q52 0 93 -22l-25 -63q-30 16 -65 16q-46 0 -76 -36t-40 -90h2q31 31 79 31q66 0 106 -40.5t40 -102.5q0 -67 -41 -108.5t-106 -41.5zM204 -98q34 0 53 23.5t19 58.5q0 36 -22 60t-59 24
q-31 0 -54.5 -16.5t-23.5 -36.5q0 -42 25 -77.5t62 -35.5z" />
    <glyph glyph-name="seveninferior" unicode="&#x2087;" 
d="M60 -157l175 323l29 47v2q-19 -2 -45 -2h-171v67h302v-51l-207 -386h-83z" />
    <glyph glyph-name="eightinferior" unicode="&#x2088;" 
d="M193 -166q-64 0 -111 36t-47 100q0 63 71 113q-49 35 -49 91q0 55 41.5 86t98.5 31t100 -31.5t43 -87.5t-56 -112q64 -38 64 -99q0 -56 -45.5 -91.5t-109.5 -35.5zM231 86q37 41 37 82q0 27 -21.5 42t-50.5 15q-28 0 -47.5 -13.5t-19.5 -40.5q0 -19 14.5 -35t30.5 -24.5
t45 -20.5q8 -3 12 -5zM193 -101q31 0 55.5 18.5t24.5 46.5q0 13 -6 24t-20 21t-24.5 15.5t-33 15.5t-32.5 15q-49 -37 -49 -82q0 -34 25.5 -54t59.5 -20z" />
    <glyph glyph-name="nineinferior" unicode="&#x2089;" 
d="M56 -145l25 64q30 -16 65 -16q45 0 76 35.5t40 89.5h-2q-31 -31 -79 -31q-66 0 -106 40.5t-40 102.5q0 66 41 108t105 42q72 0 118.5 -55.5t46.5 -147.5q0 -97 -51.5 -175.5t-145.5 -78.5q-54 0 -93 22zM190 54q31 0 54.5 17t23.5 37q0 42 -25 77.5t-62 35.5
q-33 0 -52.5 -23.5t-19.5 -57.5q0 -37 22 -61.5t59 -24.5z" />
    <glyph glyph-name="Euro" unicode="&#x20ac;" horiz-adv-x="577" 
d="M26 258v63h56q-5 28 -1 72h-55v64h67q31 116 124 188.5t215 72.5q50 0 100 -12l-23 -90q-33 10 -79 10q-83 0 -145 -46t-87 -123h281l-13 -64h-282q-5 -30 0 -72h269l-13 -63h-240q24 -80 87 -128t146 -48q49 0 91 13l19 -90q-46 -17 -111 -17q-127 0 -219 74.5
t-121 195.5h-66z" />
    <glyph glyph-name="numero" unicode="&#x2116;" horiz-adv-x="1060" 
d="M88 0v706h98l314 -458q12 -17 26.5 -43l23.5 -43l8 -17h2q-6 63 -6 103v458h99v-706h-97l-316 458l-58 103h-2q6 -63 6 -103v-458h-98zM726 470q0 59 41.5 100t101.5 41q59 0 100.5 -41t41.5 -100q0 -60 -41.5 -101t-100.5 -41q-61 0 -102 41t-41 101zM800 470
q0 -30 20 -51t49 -21t48.5 21t19.5 51t-19.5 50t-48.5 20t-49 -20t-20 -50zM735 196v70h265v-70h-265z" />
    <glyph glyph-name="trademark" unicode="&#x2122;" horiz-adv-x="992" 
d="M473 266l35 440h70l103 -230l14 -41h2q6 23 13 41l104 230h70l34 -440h-75l-21 263l1 30h-2l-94 -212h-61l-96 212h-2l1 -30l-21 -263h-75zM214 266v373h-153v67h380v-67h-152v-373h-75z" />
    <glyph glyph-name="minus" unicode="&#x2212;" horiz-adv-x="577" 
d="M30 246v78h517v-78h-517z" />
    <glyph glyph-name="infinity" unicode="&#x221e;" horiz-adv-x="482" 
d="M241 167q-75 0 -128.5 53.5t-53.5 128.5t53.5 128t128.5 53q76 0 129 -52.5t53 -128.5q0 -75 -53 -128.5t-129 -53.5z" />
    <glyph glyph-name="approxequal" unicode="&#x2248;" horiz-adv-x="577" 
d="M79 322l-41 58q71 73 151 73q50 0 107.5 -35t90.5 -35q60 0 111 55l40 -59q-71 -73 -151 -73q-50 0 -107.5 35t-90.5 35q-56 0 -110 -54zM79 133l-41 59q71 71 151 71q50 0 107.5 -35t90.5 -35q59 0 111 56l40 -59q-70 -72 -151 -72q-50 0 -107.5 35t-90.5 35
q-55 0 -110 -55z" />
    <glyph glyph-name="notequal" unicode="&#x2260;" horiz-adv-x="577" 
d="M104 73l56 78h-111v78h163l80 111h-243v78h295l81 114l51 -34l-57 -80h107v-78h-159l-80 -111h239v-78h-291l-79 -112z" />
    <glyph glyph-name="lessequal" unicode="&#x2264;" horiz-adv-x="577" 
d="M48 252v66l466 208v-89l-357 -151v-2l357 -151v-89zM49 -95h465v-77h-465v77z" />
    <glyph glyph-name="greaterequal" unicode="&#x2265;" horiz-adv-x="577" 
d="M62 44v89l357 151v2l-357 151v89l467 -208v-66zM62 -95h465v-77h-465v77z" />
    <glyph glyph-name="commaaccent" unicode="&#xf6c3;" horiz-adv-x="335" 
d="M126 -59h85q7 -27 7 -51q0 -41 -25 -94h-74q19 54 19 84t-12 61z" />
    <glyph glyph-name="cyrbreve" unicode="&#xf6d4;" horiz-adv-x="336" 
d="M167 739q-61 0 -104.5 34.5t-43.5 93.5v15h78v-14q0 -31 21 -48.5t49 -17.5q29 0 50 17.5t21 49.5v13h77v-15q0 -59 -43 -93.5t-105 -34.5z" />
    <glyph glyph-name="apple" unicode="&#xf8ff;" horiz-adv-x="1130" 
d="M168 -5v152l-126 72v278l126 71v151l265 142l134 -71l132 71l265 -142v-151l124 -71v-278l-124 -72v-152l-265 -141l-132 71l-134 -71zM208 30l238 -126l121 66l118 -66l238 126v139l114 64v249l-114 66v136l-238 126l-118 -64l-121 64l-238 -126v-136l-114 -66v-249
l114 -64v-139zM242 64v121l-99 60v225l99 58v123l215 114l110 -59l107 59l214 -114v-123l100 -58v-225l-100 -60v-121l-214 -114l-107 58l-110 -58zM447 91h43v228h228v40h-228v192h199q17 0 23 -6.5t6 -22.5v-42h42v54q0 30 -13 43.5t-45 13.5h-320v-40h65v-460z" />
    <glyph glyph-name="zero.tnum" horiz-adv-x="577" 
d="M289 -12q-68 0 -118 28t-78 79t-41 115t-13 144t13 143.5t41 114t78 78.5t118 28q250 0 250 -364q0 -366 -250 -366zM289 79q148 0 148 275q0 273 -148 273t-148 -273q0 -275 148 -275z" />
    <glyph glyph-name="one.tnum" horiz-adv-x="577" 
d="M98 0v86h156v456l1 43h-2q-8 -15 -34 -41l-66 -64l-60 62l169 164h88v-620h155v-86h-407z" />
    <glyph glyph-name="two.tnum" horiz-adv-x="577" 
d="M61 0q-5 32 -5 54q0 51 19 95t49.5 76t67.5 60.5t74.5 53.5t68 50t49.5 55.5t19 63.5q0 52 -36 84.5t-92 32.5q-43 0 -81.5 -25t-61.5 -65l-73 49q32 59 91 96.5t133 37.5q98 0 160 -56t62 -147q0 -54 -25 -101t-62.5 -77.5t-81.5 -62.5t-82 -57t-63.5 -59.5t-26.5 -71.5
h352v-86h-455z" />
    <glyph glyph-name="three.tnum" horiz-adv-x="577" 
d="M48 84l54 75q31 -33 77 -55t94 -22q60 0 102 36.5t42 92.5q0 62 -47.5 96t-117.5 34h-48l-23 53l154 181q10 12 21 23.5l17 17.5l6 5v2q-21 -3 -60 -3h-239v86h422v-63l-192 -222q51 -5 95.5 -26t78 -68.5t33.5 -112.5q0 -93 -67 -159.5t-173 -66.5q-63 0 -124 25
t-105 71z" />
    <glyph glyph-name="four.tnum" horiz-adv-x="577" 
d="M17 189v62l327 455h112v-434h96v-83h-96v-189h-97v189h-342zM126 272h233v258l4 71h-2q-16 -34 -35 -59l-200 -268v-2z" />
    <glyph glyph-name="five.tnum" horiz-adv-x="577" 
d="M55 86l56 72q62 -76 155 -76q64 0 109 40t45 103t-45.5 104t-114.5 41q-66 0 -119 -35l-58 21l35 350h357v-86h-271l-16 -149l-6 -36h2q40 21 92 21q110 0 178 -66.5t68 -164.5q0 -101 -71.5 -169t-178.5 -68q-63 0 -120.5 25.5t-96.5 72.5z" />
    <glyph glyph-name="six.tnum" horiz-adv-x="577" 
d="M47 320q0 56 12 111.5t37.5 107.5t61.5 91.5t89.5 63.5t116.5 24q77 0 138 -29l-32 -85q-44 23 -102 23q-90 0 -144 -69.5t-67 -167.5h2q22 30 65.5 48t90.5 18q99 0 161 -66t62 -167q0 -102 -64 -168.5t-163 -66.5q-114 0 -189 92t-75 240zM314 79q56 0 91 41t35 103
q0 67 -39 108.5t-106 41.5q-58 0 -101 -29t-43 -75q0 -65 46.5 -127.5t116.5 -62.5z" />
    <glyph glyph-name="seven.tnum" horiz-adv-x="577" 
d="M111 0l275 555q9 18 19 34.5t15 23.5l6 7v2q-14 -2 -50 -2h-316v86h472v-68l-318 -638h-103z" />
    <glyph glyph-name="eight.tnum" horiz-adv-x="577" 
d="M42 201q0 37 13 71.5t34 58.5t36 37.5t30 23.5q-79 55 -79 139q0 78 57 132.5t163 54.5q99 0 160.5 -51.5t61.5 -136.5q0 -58 -28.5 -107.5t-56.5 -77.5q96 -58 96 -150q0 -85 -67 -146t-175 -61q-105 0 -175 60.5t-70 152.5zM357 383q64 68 64 139q0 50 -35 78.5
t-92 28.5q-56 0 -88 -28t-32 -70q0 -15 4.5 -28t11 -23t19.5 -20.5t23 -17.5t28.5 -16l30 -14.5t33.5 -14.5t33 -14zM143 209q0 -57 43 -94.5t100 -37.5q58 0 100 33.5t42 86.5q0 23 -10.5 41.5t-34.5 34.5t-43 26t-56.5 26t-54.5 24q-86 -60 -86 -140z" />
    <glyph glyph-name="nine.tnum" horiz-adv-x="577" 
d="M74 17l32 86q48 -24 101 -24q91 0 145 69.5t67 167.5h-2q-21 -30 -65 -48t-91 -18q-99 0 -161 66t-62 166q0 104 64 170t163 66q115 0 189.5 -92t74.5 -241q0 -70 -19.5 -138.5t-57 -127.5t-100 -95t-141.5 -36q-78 0 -137 29zM281 333q59 0 102 30.5t43 68.5
q0 72 -47.5 133.5t-112.5 61.5q-59 0 -94 -40.5t-35 -104.5q0 -66 39 -107.5t105 -41.5z" />
    <glyph glyph-name="hyphen.case" horiz-adv-x="432" 
d="M70 305v86h292v-86h-292z" />
    <glyph glyph-name="parenleft.case" horiz-adv-x="293" 
d="M169 -65q-116 193 -116 435q0 210 116 395h85q-113 -189 -113 -396q0 -229 113 -434h-85z" />
    <glyph glyph-name="parenright.case" horiz-adv-x="293" 
d="M39 -65q113 205 113 434q0 207 -113 396h85q116 -185 116 -395q0 -242 -116 -435h-85z" />
    <glyph glyph-name="bracketleft.case" horiz-adv-x="301" 
d="M86 -65v830h166v-73h-81v-683h81v-74h-166z" />
    <glyph glyph-name="bracketright.case" horiz-adv-x="301" 
d="M49 9h81v683h-81v73h166v-830h-166v74z" />
    <glyph glyph-name="braceleft.case" horiz-adv-x="355" 
d="M126 107v96q0 44 -21.5 73t-63.5 36v86q40 8 62.5 36.5t22.5 74.5v84q0 45 12.5 78.5t30 51t42 28.5t42 13.5t35.5 2.5l23 -1v-74h-13q-13 0 -25 -3.5t-27.5 -13t-25 -32t-9.5 -56.5v-103q0 -44 -22 -78t-59 -49v-2q81 -32 81 -127v-115q0 -34 9.5 -57t25 -32.5
t27.5 -12.5t25 -3h13v-74q-9 -2 -23 -2q-18 0 -35.5 2.5t-42 13.5t-42 28.5t-30 51.5t-12.5 79z" />
    <glyph glyph-name="braceright.case" horiz-adv-x="355" 
d="M44 8h14q13 0 24.5 3t27 12.5t25 32.5t9.5 57v115q0 45 21 79t60 48v2q-34 13 -57.5 47t-23.5 80v103q0 34 -9.5 56.5t-25 32t-27 13t-24.5 3.5h-14v74q9 1 23 1q18 0 35.5 -2.5t42 -13.5t42 -28.5t30 -51t12.5 -78.5v-84q0 -44 22 -74t63 -37v-86q-40 -5 -62.5 -35.5
t-22.5 -73.5v-96q0 -45 -12.5 -79t-30 -51.5t-42 -28.5t-42 -13.5t-35.5 -2.5l-23 2v74z" />
    <glyph glyph-name="at.case" horiz-adv-x="796" 
d="M56 351q0 155 106 262.5t259 107.5q135 0 197.5 -57.5t62.5 -145.5v-283h72v-73h-273q-91 0 -149 55.5t-58 132.5q0 78 57.5 133t149.5 55h108q-1 44 -44 73.5t-118 29.5q-115 0 -194 -86t-79 -204q0 -121 79.5 -204t204.5 -83v-79q-165 0 -273 105.5t-108 260.5z
M371 352q0 -49 33 -83t83 -34h101v236h-99q-51 0 -84.5 -34.5t-33.5 -84.5z" />
    <glyph glyph-name="guillemotleft.case" horiz-adv-x="561" 
d="M411 137l-164 205l164 206h97l-164 -206l164 -205h-97zM209 137l-164 205l164 206h97l-164 -206l164 -205h-97z" />
    <glyph glyph-name="guillemotright.case" horiz-adv-x="561" 
d="M255 137l164 205l-164 206h97l164 -206l-164 -205h-97zM53 137l164 205l-164 206h97l164 -206l-164 -205h-97z" />
    <glyph glyph-name="guilsinglleft.case" horiz-adv-x="360" 
d="M209 137l-164 205l164 206h97l-164 -206l164 -205h-97z" />
    <glyph glyph-name="guilsinglright.case" horiz-adv-x="360" 
d="M53 137l164 205l-164 206h97l164 -206l-164 -205h-97z" />
    <glyph glyph-name="endash.case" horiz-adv-x="666" 
d="M70 306v78h526v-78h-526z" />
    <glyph glyph-name="emdash.case" horiz-adv-x="866" 
d="M70 306v78h726v-78h-726z" />
    <glyph glyph-name="periodcentered.case" horiz-adv-x="240" 
d="M70 294v103h99v-103h-99z" />
    <glyph glyph-name="questiondown.case" horiz-adv-x="467" 
d="M314 511v-47q0 -42 -17.5 -76t-42.5 -57.5l-49.5 -45t-42 -49.5t-17.5 -61q0 -42 32.5 -70.5t81.5 -28.5q61 0 113 42l54 -69q-72 -64 -174 -64q-87 0 -148 51t-61 132q0 46 18 82.5t44.5 61l52.5 47t44 50.5t18 61v41h94zM317 705v-99h-100v99h100z" />
    <glyph glyph-name="exclamdown.case" horiz-adv-x="273" 
d="M180 511l6 -512h-100l7 512h87zM186 705v-99h-100v99h100z" />
    <glyph glyph-name="bullet.case" horiz-adv-x="474" 
d="M237 197q-64 0 -109 45.5t-45 109.5t45 109.5t109 45.5t109.5 -45.5t45.5 -109.5t-45.5 -109.5t-109.5 -45.5z" />
    <glyph glyph-name="zero.p_osf" horiz-adv-x="585" 
d="M52 272q0 75 24.5 138t81 105.5t135.5 42.5q116 0 178 -84.5t62 -202.5q0 -117 -62 -200t-178 -83q-117 0 -179 83.5t-62 200.5zM150 273q0 -83 36.5 -142t106.5 -59q69 0 105.5 59.5t36.5 141.5t-36.5 141.5t-105.5 59.5q-70 0 -106.5 -59t-36.5 -142z" />
    <glyph glyph-name="one.p_osf" horiz-adv-x="483" 
d="M67 0v84h152v305l1 59h-2q-15 -15 -38 -29l-91 -54l-45 68l184 113h86v-462h137v-84h-384z" />
    <glyph glyph-name="two.p_osf" horiz-adv-x="541" 
d="M60 0v67q151 100 229 172t78 136q0 49 -33 73t-83 24q-77 0 -150 -75l-53 64q35 41 94 69t122 28q90 0 146 -48.5t56 -121.5q0 -84 -63.5 -153.5t-196.5 -152.5v-2q21 4 60 4h226v-84h-432z" />
    <glyph glyph-name="three.p_osf" horiz-adv-x="535" 
d="M34 -39l50 68q71 -73 161 -73q60 0 102 34t42 89q0 61 -48.5 93t-114.5 32h-52l-22 51l149 171q8 10 18 19.5t15 13.5l6 4v2q-21 -3 -59 -3h-207v84h397v-57l-193 -212q37 -3 72 -15t66.5 -33.5t51 -59t19.5 -84.5q0 -92 -66.5 -152.5t-173.5 -60.5q-130 0 -213 89z" />
    <glyph glyph-name="four.p_osf" horiz-adv-x="593" 
d="M29 33v62l310 451h115v-429h102v-84h-102v-149h-97v149h-328zM137 117h220v256l5 71h-2q-17 -37 -35 -63z" />
    <glyph glyph-name="five.p_osf" horiz-adv-x="539" 
d="M42 -32l51 66q26 -32 67 -51.5t85 -19.5q63 0 109 35.5t46 98.5t-45.5 98.5t-109.5 35.5q-31 0 -61 -7.5t-45 -15.5l-15 -8l-55 20l36 326h344v-84h-261l-16 -136l-5 -35h2q40 19 93 19q103 0 169.5 -57t66.5 -152q0 -101 -70 -162t-177 -61q-59 0 -115.5 23.5
t-93.5 66.5z" />
    <glyph glyph-name="six.p_osf" horiz-adv-x="591" 
d="M56 294q0 67 19 132.5t55.5 121.5t98.5 91t140 35q76 0 137 -27l-32 -79q-44 22 -101 22q-90 0 -144.5 -67.5t-66.5 -161.5h2q22 31 65.5 48.5t91.5 17.5q98 0 159.5 -61.5t61.5 -154.5q0 -97 -63.5 -160t-161.5 -63q-114 0 -187.5 83.5t-73.5 222.5zM158 254
q0 -67 45.5 -124.5t112.5 -57.5q60 0 94 38.5t34 99.5t-38.5 99.5t-104.5 38.5q-58 0 -100.5 -28.5t-42.5 -65.5z" />
    <glyph glyph-name="seven.p_osf" horiz-adv-x="515" 
d="M88 -116l262 519q9 17 18 32t14 21l4 7v2q-14 -2 -49 -2h-302v83h460v-64l-305 -598h-102z" />
    <glyph glyph-name="eight.p_osf" horiz-adv-x="588" 
d="M54 191q0 43 24 84t45.5 59.5t42.5 32.5q-80 53 -80 133q0 72 55.5 123t157.5 51q96 0 156.5 -48.5t60.5 -128.5q0 -87 -81 -173q95 -56 95 -141q0 -80 -66 -137.5t-171 -57.5q-103 0 -171 57t-68 146zM359 361q63 63 63 130q0 46 -34 72.5t-90 26.5q-55 0 -86.5 -26
t-31.5 -66q0 -15 4.5 -28.5t16.5 -25l21 -19.5t30.5 -18.5t32 -15t38 -15.5t36.5 -15zM151 197q0 -55 42 -90t100 -35q57 0 98 31.5t41 81.5q0 18 -8.5 33.5t-20.5 26t-34 23t-38.5 19.5l-46 19.5l-45.5 19.5q-88 -57 -88 -129z" />
    <glyph glyph-name="nine.p_osf" horiz-adv-x="574" 
d="M110 -22q44 -22 101 -22q89 0 143.5 67.5t67.5 160.5h-2q-22 -30 -65.5 -47t-91.5 -17q-99 0 -160 61t-61 154q0 98 63.5 160.5t161.5 62.5q114 0 187.5 -83.5t73.5 -222.5q0 -67 -19 -132.5t-55.5 -121.5t-98.5 -91t-140 -35q-76 0 -137 27zM283 199q58 0 100.5 28
t42.5 65q0 67 -45.5 124.5t-113.5 57.5q-59 0 -93.5 -38t-34.5 -100q0 -60 39 -98.5t105 -38.5z" />
    <glyph glyph-name="zero.t_osf" horiz-adv-x="577" 
d="M48 272q0 75 24.5 138t81 105.5t135.5 42.5q116 0 178 -84.5t62 -202.5q0 -117 -62 -200t-178 -83q-117 0 -179 83.5t-62 200.5zM146 273q0 -83 36.5 -142t106.5 -59q69 0 105.5 59.5t36.5 141.5t-36.5 141.5t-105.5 59.5q-70 0 -106.5 -59t-36.5 -142z" />
    <glyph glyph-name="one.t_osf" horiz-adv-x="577" 
d="M113 0v84h152v305l1 59h-2q-15 -15 -38 -29l-91 -54l-45 68l184 113h86v-462h137v-84h-384z" />
    <glyph glyph-name="two.t_osf" horiz-adv-x="577" 
d="M78 0v67q151 100 229 172t78 136q0 49 -33 73t-83 24q-77 0 -150 -75l-53 64q35 41 94 69t122 28q90 0 146 -48.5t56 -121.5q0 -84 -63.5 -153.5t-196.5 -152.5v-2q21 4 60 4h226v-84h-432z" />
    <glyph glyph-name="three.t_osf" horiz-adv-x="577" 
d="M55 -39l50 68q71 -73 161 -73q60 0 101.5 34t41.5 89q0 61 -48.5 93t-113.5 32h-52l-22 51l148 170q8 10 18 19.5t15 13.5l6 4v2q-21 -3 -58 -3h-207v84h396v-57l-192 -211q37 -3 71.5 -15t66 -33.5t51 -59t19.5 -84.5q0 -92 -66.5 -152.5t-172.5 -60.5q-130 0 -213 89z
" />
    <glyph glyph-name="four.t_osf" horiz-adv-x="577" 
d="M22 33v62l310 451h115v-429h102v-84h-102v-149h-97v149h-328zM130 117h220v256l5 71h-2q-17 -37 -35 -63z" />
    <glyph glyph-name="five.t_osf" horiz-adv-x="577" 
d="M60 -32l51 66q26 -32 67 -51.5t85 -19.5q63 0 109 35.5t46 98.5t-45.5 98.5t-109.5 35.5q-31 0 -61 -7.5t-45 -15.5l-15 -8l-55 20l36 326h344v-84h-261l-16 -136l-5 -35h2q40 19 93 19q103 0 169.5 -57t66.5 -152q0 -101 -70 -162t-177 -61q-59 0 -115.5 23.5
t-93.5 66.5z" />
    <glyph glyph-name="six.t_osf" horiz-adv-x="577" 
d="M50 294q0 67 19 132.5t55.5 121.5t98.5 91t140 35q76 0 137 -27l-32 -79q-44 22 -101 22q-90 0 -144.5 -67.5t-66.5 -161.5h2q22 31 65.5 48.5t91.5 17.5q98 0 159.5 -61.5t61.5 -154.5q0 -97 -63.5 -160t-161.5 -63q-114 0 -187.5 83.5t-73.5 222.5zM152 254
q0 -67 45.5 -124.5t112.5 -57.5q60 0 94 38.5t34 99.5t-38.5 99.5t-104.5 38.5q-58 0 -100.5 -28.5t-42.5 -65.5z" />
    <glyph glyph-name="seven.t_osf" horiz-adv-x="577" 
d="M118 -116l262 519q9 17 18 32t14 21l4 7v2q-14 -2 -49 -2h-302v83h460v-64l-305 -598h-102z" />
    <glyph glyph-name="eight.t_osf" horiz-adv-x="577" 
d="M49 191q0 43 24 84t45.5 59.5t42.5 32.5q-80 53 -80 133q0 72 55.5 123t157.5 51q96 0 156.5 -48.5t60.5 -128.5q0 -87 -81 -173q95 -56 95 -141q0 -80 -66 -137.5t-171 -57.5q-103 0 -171 57t-68 146zM354 361q63 63 63 130q0 46 -34 72.5t-90 26.5q-55 0 -86.5 -26
t-31.5 -66q0 -15 4.5 -28.5t16.5 -25l21 -19.5t30.5 -18.5t32 -15t38 -15.5t36.5 -15zM146 197q0 -55 42 -90t100 -35q57 0 98 31.5t41 81.5q0 18 -8.5 33.5t-20.5 26t-34 23t-38.5 19.5l-46 19.5l-45.5 19.5q-88 -57 -88 -129z" />
    <glyph glyph-name="nine.t_osf" horiz-adv-x="577" 
d="M110 -22q44 -22 101 -22q89 0 143.5 67.5t67.5 160.5h-2q-22 -30 -65.5 -47t-91.5 -17q-99 0 -160 61t-61 154q0 98 63.5 160.5t161.5 62.5q114 0 187.5 -83.5t73.5 -222.5q0 -67 -19 -132.5t-55.5 -121.5t-98.5 -91t-140 -35q-76 0 -137 27zM283 199q58 0 100.5 28
t42.5 65q0 67 -45.5 124.5t-113.5 57.5q-59 0 -93.5 -38t-34.5 -100q0 -60 39 -98.5t105 -38.5z" />
    <glyph glyph-name="dollar.osf" horiz-adv-x="516" 
d="M43 85l51 71q29 -34 74 -57t91 -23q47 0 77 21t30 59q0 29 -31 51t-74.5 39t-87.5 37t-75 56.5t-31 86.5q0 68 46 110t119 51v87h71v-86q96 -11 150 -61l-41 -77q-55 53 -139 53q-46 0 -75.5 -19.5t-29.5 -59.5q0 -29 31 -50.5t75 -37.5t87.5 -36t74.5 -57t31 -89
q0 -65 -47 -110t-124 -53v-93h-71v93q-52 6 -101 31t-81 63z" />
    <glyph glyph-name="cent.osf" horiz-adv-x="554" 
d="M256 -27v83q-94 15 -152 81.5t-58 161.5q0 94 58 160.5t152 81.5v85h73v-82q100 -8 169 -77l-47 -73q-23 29 -61.5 46.5t-77.5 17.5q-74 0 -121.5 -45t-47.5 -113q0 -69 47.5 -115t121.5 -46q80 0 139 64l46 -72q-60 -67 -168 -78v-80h-73z" />
    <glyph glyph-name="sterling.osf" horiz-adv-x="598" 
d="M53 0v84h62v157h-45v68h45v88q0 83 63.5 138t159.5 55q100 0 173 -55l-47 -72q-53 40 -125 40q-56 0 -91.5 -31.5t-35.5 -77.5v-85h217v-68h-217v-157h325v-84h-484z" />
    <glyph glyph-name="yen.osf" horiz-adv-x="622" 
d="M96 141v63h166v22l-35 57h-131v64h94l-139 232h111l104 -184l43 -90h2q22 50 43 90l105 184h111l-139 -232h96v-64h-133l-34 -57v-22h167v-63h-167v-141h-98v141h-166z" />
    <glyph glyph-name="florin.osf" horiz-adv-x="525" 
d="M-2 -37q38 -6 65 -6q17 0 33 4t35 14.5t31.5 34t15.5 58.5l21 236h-83v79h89l10 104q4 48 21 83.5t39 55t50.5 31t50.5 15t45 3.5q17 0 38 -2t34 -4l13 -2v-84q-50 7 -80 7q-106 0 -115 -110l-10 -97h117v-79h-124l-21 -244q-5 -59 -28.5 -99t-57.5 -57.5t-61.5 -24
t-57.5 -6.5l-70 6v84z" />
    <glyph glyph-name="Euro.osf" horiz-adv-x="601" 
d="M51 198v59h65q-4 27 -1 61h-64v60h73q27 93 105.5 152.5t201.5 59.5q49 0 97 -12l-22 -80q-35 10 -77 10q-77 0 -128 -36t-73 -94h252l-13 -60h-255q-5 -31 2 -61h243l-12 -59h-212q22 -57 73 -92t126 -35q49 0 88 14l17 -81q-50 -16 -106 -16q-119 0 -197.5 59
t-107.5 151h-75z" />
    <glyph glyph-name="zero.numerator" 
d="M193 260q-157 0 -157 229q0 228 157 228t157 -228q0 -229 -157 -229zM193 329q81 0 81 160q0 159 -81 159q-82 0 -82 -159q0 -160 82 -160z" />
    <glyph glyph-name="one.numerator" 
d="M72 270v66h93v249l2 26h-2q-4 -9 -17 -22l-36 -34l-45 49l106 103h67v-371h92v-66h-260z" />
    <glyph glyph-name="two.numerator" 
d="M47 270q-3 18 -3 36q0 47 22 83.5t53 59t62 42t53 42.5t22 50q0 28 -20.5 46.5t-51.5 18.5q-45 0 -85 -48l-49 45q21 31 58.5 51.5t78.5 20.5q62 0 103 -36.5t41 -94.5q0 -40 -20.5 -72t-50 -52.5t-59.5 -38.5t-52 -39.5t-24 -47.5h213v-66h-291z" />
    <glyph glyph-name="three.numerator" 
d="M182 260q-42 0 -82 17t-65 49l42 53q15 -21 43 -35.5t59 -14.5q34 0 58.5 22t24.5 54q0 33 -26 52t-62 19h-34l-17 38l89 103l25 24v2q-19 -3 -37 -3h-141v67h271v-48l-109 -126q50 -7 83.5 -39.5t33.5 -88.5q0 -59 -44 -102t-112 -43z" />
    <glyph glyph-name="four.numerator" 
d="M226 270v107h-207v50l200 280h81v-264h62v-66h-62v-107h-74zM100 443h126v123l3 58h-2q-13 -27 -29 -48l-98 -131v-2z" />
    <glyph glyph-name="five.numerator" 
d="M183 260q-89 0 -143 68l44 51q14 -22 40.5 -36t53.5 -14q37 0 63.5 23.5t26.5 58.5t-26.5 59t-64.5 24q-41 0 -75 -21l-42 16l24 218h231v-67h-170l-7 -62l-5 -32h2q27 10 56 10q66 0 109 -43t43 -103q0 -61 -45 -105.5t-115 -44.5z" />
    <glyph glyph-name="six.numerator" 
d="M204 260q-72 0 -118 55.5t-46 147.5q0 61 19.5 117t66 96.5t111.5 40.5q52 0 93 -22l-25 -63q-30 16 -65 16q-46 0 -76 -36t-40 -90h2q31 31 79 31q66 0 106 -40.5t40 -102.5q0 -67 -41 -108.5t-106 -41.5zM204 329q34 0 53 23.5t19 58.5q0 36 -22 60t-59 24
q-31 0 -54.5 -16.5t-23.5 -36.5q0 -42 25 -77.5t62 -35.5z" />
    <glyph glyph-name="seven.numerator" 
d="M60 270l175 323l29 47v2q-19 -2 -45 -2h-171v67h302v-51l-207 -386h-83z" />
    <glyph glyph-name="eight.numerator" 
d="M193 259q-64 0 -111 36t-47 100q0 63 71 113q-49 35 -49 91q0 55 41.5 86t98.5 31t100 -31.5t43 -87.5t-56 -112q64 -38 64 -99q0 -56 -45.5 -91.5t-109.5 -35.5zM231 511q37 41 37 82q0 27 -21.5 42t-50.5 15q-28 0 -47.5 -13.5t-19.5 -40.5q0 -19 14.5 -35t30.5 -24.5
t45 -20.5q8 -3 12 -5zM193 324q31 0 55.5 18.5t24.5 46.5q0 13 -6 24t-20 21t-24.5 15.5t-33 15.5t-32.5 15q-49 -37 -49 -82q0 -34 25.5 -54t59.5 -20z" />
    <glyph glyph-name="nine.numerator" 
d="M56 282l25 64q30 -16 65 -16q45 0 76 35.5t40 89.5h-2q-31 -31 -79 -31q-66 0 -106 40.5t-40 102.5q0 66 41 108t105 42q72 0 118.5 -55.5t46.5 -147.5q0 -97 -51.5 -175.5t-145.5 -78.5q-54 0 -93 22zM190 481q31 0 54.5 17t23.5 37q0 42 -25 77.5t-62 35.5
q-33 0 -52.5 -23.5t-19.5 -57.5q0 -37 22 -61.5t59 -24.5z" />
    <glyph glyph-name="zero.denominator" 
d="M193 -10q-157 0 -157 229q0 228 157 228t157 -228q0 -229 -157 -229zM193 59q81 0 81 160q0 159 -81 159q-82 0 -82 -159q0 -160 82 -160z" />
    <glyph glyph-name="one.denominator" 
d="M72 0v66h93v249l2 26h-2q-4 -9 -17 -22l-36 -34l-45 49l106 103h67v-371h92v-66h-260z" />
    <glyph glyph-name="two.denominator" 
d="M47 0q-3 18 -3 36q0 47 22 83.5t53 59t62 42t53 42.5t22 50q0 28 -20.5 46.5t-51.5 18.5q-45 0 -85 -48l-49 45q21 31 58.5 51.5t78.5 20.5q62 0 103 -36.5t41 -94.5q0 -40 -20.5 -72t-50 -52.5t-59.5 -38.5t-52 -39.5t-24 -47.5h213v-66h-291z" />
    <glyph glyph-name="three.denominator" 
d="M182 -10q-42 0 -82 17t-65 49l42 53q15 -21 43 -35.5t59 -14.5q34 0 58.5 22t24.5 54q0 33 -26 52t-62 19h-34l-17 38l89 103l25 24v2q-19 -3 -37 -3h-141v67h271v-48l-109 -126q50 -7 83.5 -39.5t33.5 -88.5q0 -59 -44 -102t-112 -43z" />
    <glyph glyph-name="four.denominator" 
d="M226 0v107h-207v50l200 280h81v-264h62v-66h-62v-107h-74zM100 173h126v123l3 58h-2q-13 -27 -29 -48l-98 -131v-2z" />
    <glyph glyph-name="five.denominator" 
d="M183 -10q-89 0 -143 68l44 51q14 -22 40.5 -36t53.5 -14q37 0 63.5 23.5t26.5 58.5t-26.5 59t-64.5 24q-41 0 -75 -21l-42 16l24 218h231v-67h-170l-7 -62l-5 -32h2q27 10 56 10q66 0 109 -43t43 -103q0 -61 -45 -105.5t-115 -44.5z" />
    <glyph glyph-name="six.denominator" 
d="M204 -10q-72 0 -118 55.5t-46 147.5q0 61 19.5 117t66 96.5t111.5 40.5q52 0 93 -22l-25 -63q-30 16 -65 16q-46 0 -76 -36t-40 -90h2q31 31 79 31q66 0 106 -40.5t40 -102.5q0 -67 -41 -108.5t-106 -41.5zM204 59q34 0 53 23.5t19 58.5q0 36 -22 60t-59 24
q-31 0 -54.5 -16.5t-23.5 -36.5q0 -42 25 -77.5t62 -35.5z" />
    <glyph glyph-name="seven.denominator" 
d="M60 0l175 323l29 47v2q-19 -2 -45 -2h-171v67h302v-51l-207 -386h-83z" />
    <glyph glyph-name="eight.denominator" 
d="M193 -10q-64 0 -111 36t-47 100q0 63 71 113q-49 35 -49 91q0 55 41.5 86t98.5 31t100 -31.5t43 -87.5t-56 -112q64 -38 64 -99q0 -56 -45.5 -91.5t-109.5 -35.5zM231 242q37 41 37 82q0 27 -21.5 42t-50.5 15q-28 0 -47.5 -13.5t-19.5 -40.5q0 -19 14.5 -35t30.5 -24.5
t45 -20.5q8 -3 12 -5zM193 55q31 0 55.5 18.5t24.5 46.5q0 13 -6 24t-20 21t-24.5 15.5t-33 15.5t-32.5 15q-49 -37 -49 -82q0 -34 25.5 -54t59.5 -20z" />
    <glyph glyph-name="nine.denominator" 
d="M56 12l25 64q30 -16 65 -16q45 0 76 35.5t40 89.5h-2q-31 -31 -79 -31q-66 0 -106 40.5t-40 102.5q0 66 41 108t105 42q72 0 118.5 -55.5t46.5 -147.5q0 -97 -51.5 -175.5t-145.5 -78.5q-54 0 -93 22zM190 211q31 0 54.5 17t23.5 37q0 42 -25 77.5t-62 35.5
q-33 0 -52.5 -23.5t-19.5 -57.5q0 -37 22 -61.5t59 -24.5z" />
    <glyph glyph-name="uni0433.BUL" horiz-adv-x="446" 
d="M39 122q0 45 27 79.5t65.5 54t77.5 37t66 39t27 48.5q0 56 -79 56q-67 0 -132 -45l-39 71q79 56 173 56q76 0 123 -33.5t47 -98.5q0 -39 -19.5 -70.5t-48.5 -50t-63.5 -36t-63.5 -30t-48.5 -31t-19.5 -40.5q0 -28 24 -43t62 -15q83 0 147 59l47 -67q-88 -74 -196 -74
q-81 0 -129 36.5t-48 97.5z" />
    <glyph glyph-name="uni0434.BUL" horiz-adv-x="594" 
d="M123 -92q68 -34 139 -34t115.5 34.5t44.5 106.5v41l3 32h-2q-49 -82 -152 -82t-164.5 73t-61.5 185t59 183t162 71q51 0 94 -19t66 -58h3q-3 6 -3 15v50h93v-485q0 -60 -21.5 -106t-58.5 -72.5t-81 -39.5t-94 -13q-89 0 -173 42zM143 267q0 -80 39.5 -128.5t107.5 -48.5
q59 0 96.5 41t37.5 133q0 170 -143 170q-65 0 -101.5 -44.5t-36.5 -122.5z" />
    <glyph glyph-name="uni0436.BUL" horiz-adv-x="752" 
d="M17 0l163 260v2l-149 244h103l124 -207h72v407h92v-407h72l125 207h102l-148 -244v-2l163 -260h-109l-132 216h-73v-216h-92v216h-72l-133 -216h-108z" />
    <glyph glyph-name="uni0438.BUL" horiz-adv-x="597" 
d="M69 182v324h97v-302q0 -60 20 -93t75 -33q75 0 120 56t45 135v237h96v-506h-94v70l4 37h-2q-20 -45 -70 -82t-118 -37q-173 0 -173 194z" />
    <glyph glyph-name="uni0439.BUL" horiz-adv-x="597" 
d="M69 182v324h97v-302q0 -60 20 -93t75 -33q75 0 120 56t45 135v237h96v-506h-94v70l4 37h-2q-20 -45 -70 -82t-118 -37q-173 0 -173 194zM294 564q-61 0 -104.5 34.5t-43.5 93.5v15h78v-14q0 -31 21 -48.5t49 -17.5q29 0 50 17.5t21 49.5v13h77v-15q0 -59 -43 -93.5
t-105 -34.5z" />
    <glyph glyph-name="uni043A.BUL" horiz-adv-x="522" 
d="M75 0v706h97v-386h72l137 186h110l-168 -223v-2l187 -281h-113l-151 237h-74v-237h-97z" />
    <glyph glyph-name="uni043B.BUL" horiz-adv-x="526" 
d="M17 0l189 506h112l187 -506h-102l-123 343l-17 68h-2q-9 -41 -19 -68l-123 -343h-102z" />
    <glyph glyph-name="uni043F.BUL" horiz-adv-x="603" 
d="M75 0v506h94v-69l-3 -38h2q19 43 68.5 81t123.5 38q173 0 173 -194v-324h-97v302q0 61 -19.5 94t-75.5 33q-73 0 -121 -53.5t-48 -132.5v-243h-97z" />
    <glyph glyph-name="uni0442.BUL" horiz-adv-x="914" 
d="M75 0v506h94v-69l-3 -38h2q19 47 69 83t107 36q125 0 151 -115h2q22 47 71.5 81t108.5 34q86 0 126.5 -48t40.5 -146v-324h-97v303q0 61 -18.5 94t-70.5 33q-67 0 -108.5 -58.5t-41.5 -135.5v-236h-97v303q0 60 -17.5 93.5t-69.5 33.5q-68 0 -110 -59t-42 -135v-236h-97z
" />
    <glyph glyph-name="uni0446.BUL" horiz-adv-x="627" 
d="M69 182v324h97v-302q0 -60 20 -93t75 -33q75 0 120 56t45 135v237h96v-422h81v-204h-89v120h-86v70l4 37h-2q-20 -45 -70 -82t-118 -37q-173 0 -173 194z" />
    <glyph glyph-name="uni0448.BUL" horiz-adv-x="913" 
d="M838 505v-506h-94v69l3 38h-2q-19 -47 -69 -83t-107 -36q-125 0 -151 115h-2q-22 -47 -71.5 -81t-108.5 -34q-86 0 -126.5 48t-40.5 146v324h97v-303q0 -61 18.5 -94t70.5 -33q67 0 108.5 58.5t41.5 135.5v236h97v-303q0 -60 17.5 -93.5t69.5 -33.5q68 0 110 59t42 135
v236h97z" />
    <glyph glyph-name="uni0449.BUL" horiz-adv-x="939" 
d="M838 505v-421h76v-204h-88v119h-82v69l3 38h-2q-19 -47 -69 -83t-107 -36q-125 0 -151 115h-2q-22 -47 -71.5 -81t-108.5 -34q-86 0 -126.5 48t-40.5 146v324h97v-303q0 -61 18.5 -94t70.5 -33q67 0 108.5 58.5t41.5 135.5v236h97v-303q0 -60 17.5 -93.5t69.5 -33.5
q68 0 110 59t42 135v236h97z" />
    <glyph glyph-name="uni044A.BUL" horiz-adv-x="578" 
d="M133 184v239h-107v83h204v-138q0 -38 -1 -47h2q20 24 56 39t79 15q79 0 129.5 -51t50.5 -142q0 -86 -56.5 -140t-151.5 -54q-103 0 -154 54.5t-51 141.5zM230 180q0 -50 28.5 -83t79.5 -33q48 0 78.5 30.5t30.5 84.5q0 62 -28.5 89.5t-74.5 27.5q-53 0 -83.5 -31.5
t-30.5 -84.5z" />
    <glyph glyph-name="uni044C.BUL" horiz-adv-x="514" 
d="M69 184v322h97v-138q0 -29 -2 -47h2q20 23 57 38.5t78 15.5q79 0 130 -50.5t51 -142.5q0 -86 -56.5 -140t-152.5 -54q-102 0 -153 54.5t-51 141.5zM166 180q0 -50 28.5 -83t78.5 -33q49 0 80 30.5t31 84.5q0 62 -29 89.5t-76 27.5q-53 0 -83 -31.5t-30 -84.5z" />
    <glyph glyph-name="uni044E.BUL" horiz-adv-x="828" 
d="M75 0v706h97v-412h92q14 98 86 161t172 63q111 0 187.5 -75t76.5 -189t-76 -190t-187 -76q-100 0 -172.5 63.5t-86.5 162.5h-92v-214h-97zM358 254q0 -79 47.5 -130.5t117.5 -51.5q69 0 116.5 51.5t47.5 130.5q0 78 -47.5 129t-116.5 51q-70 0 -117.5 -51t-47.5 -129z
" />
    <glyph glyph-name="uni0432.BUL" horiz-adv-x="593" 
d="M66 242v192q0 124 66 204t182 80q80 0 129 -40t49 -99q0 -97 -121 -156v-2q43 -4 82 -23.5t68.5 -63.5t29.5 -104q0 -107 -68.5 -174.5t-179.5 -67.5q-115 0 -176 72t-61 182zM161 368h2q21 36 75 63l59 29q53 27 76 52.5t23 59.5q0 33 -27 53t-65 20q-68 0 -105.5 -51
t-37.5 -131v-95zM162 223q0 -74 39.5 -114t100.5 -40q64 0 107 41.5t43 116.5q0 68 -43 100.5t-103 32.5q-56 0 -100 -35.5t-44 -101.5z" />
    <glyph glyph-name="uni0437.BUL" horiz-adv-x="445" 
d="M47 -87q52 -38 117 -38q67 0 106 38t39 97q0 60 -39 93t-112 33h-58v79h59q54 0 91.5 31t37.5 85q0 49 -30.5 76.5t-79.5 27.5q-68 0 -117 -47l-45 63q74 67 177 67q89 0 141 -49t53 -120q1 -57 -28.5 -100t-77.5 -65v-2q126 -45 126 -176q0 -92 -64 -154t-170 -62
q-100 0 -166 47z" />
    <glyph glyph-name="uni0414.ALT" horiz-adv-x="715" 
d="M13 86h74l218 620h103l219 -620h74v-226h-89v140h-509v-140h-90v226zM190 86h334l-141 410l-25 97h-2q-15 -61 -26 -97z" />
    <glyph glyph-name="uni041B.ALT" horiz-adv-x="636" 
d="M14 0l252 706h103l252 -706h-105l-171 496l-26 97h-2q-13 -61 -26 -97l-170 -496h-107z" />
    <glyph glyph-name="uni0434.ALT" horiz-adv-x="603" 
d="M21 80h59l163 426h116l161 -426h62v-200h-89v120h-383v-120h-89v200zM177 80h245l-101 271l-20 68h-2q-9 -41 -19 -68z" />
    <glyph glyph-name="uni043B.ALT" horiz-adv-x="526" 
d="M17 0l189 506h112l187 -506h-102l-123 343l-17 68h-2q-9 -41 -19 -68l-123 -343h-102z" />
    <glyph glyph-name="uni0409.ALT" horiz-adv-x="884" 
d="M12 0l281 706h204v-289h137q98 0 159.5 -57t61.5 -152q0 -94 -61.5 -151t-155.5 -57h-239v620h-39l-246 -620h-102zM497 86h125q60 0 96 32.5t36 89.5t-36.5 90t-97.5 33h-123v-245z" />
    <glyph glyph-name="uni0459.ALT" horiz-adv-x="742" 
d="M17 0l213 506h199v-190h101q83 0 133 -39.5t50 -120.5q0 -73 -46 -114.5t-138 -41.5h-196v431h-41l-179 -431h-96zM429 70h90q51 0 75.5 23t24.5 63q0 41 -25 65t-76 24h-89v-175z" />
    <glyph glyph-name="uni04C5.ALT" horiz-adv-x="712" 
d="M14 0l252 706h103l221 -620h119v-57l-71 -169h-73l42 140h-91l-171 496l-26 97h-2q-13 -61 -26 -97l-170 -496h-107z" />
    <glyph glyph-name="uni04C6.ALT" horiz-adv-x="586" 
d="M403 0l-123 343l-17 68h-2q-9 -41 -19 -68l-123 -343h-102l189 506h112l156 -423h107v-55l-62 -148h-69l36 120h-83z" />
    </font>
</defs>
</svg>
